×

¿Problemas para descargar con Mozilla, EDGE? Deshabilita la opción "Abrir vinculos en una pestaña nueva" tal como lo muestra ésta imagen.

Chevalier: Pasión y Libertad (2023) AMZN WEB-DL 1080p Latino

161 vistas

Información de Chevalier: Pasión y Libertad (2023) AMZN WEB-DL 1080p Latino

Datos de la película

  • Calidad: WEBDL
  • Audio: Español Latino AC3 5.1 WEB-DL - Ingles AC3 5.1 WEB-DL
  • Subtitulos: Español Latino SRT- FORZADOS SRT
  • Resolución: 1920x1040p
  • Formato: MKV
  • Codec: H.264
  • Encoder: Melkor
  • Mediainfo: Clic para Mostrar Datos Ver
  • Chevalier (2022) AMZN WebDL 1080p Latino.mkv
    Format                      : Matroska
    Format version              : Version 4
    File size                   : 5.43 GiB
    Duration                    : 1 h 49 min
    Overall bit rate            : 7 108 kb/s
    Movie name                  : Chevalier (2022) CinemaniaHDD.Net
    Encoded date                : UTC 2023-06-19 02:29:03
    Writing application         : mkvmerge v56.1.0 ('My Friend') 64-bit
    Writing library             : libebml v1.4.2 + libmatroska v1.6.4
    Attachments                 : CINEMANIAHD.png
    Site                        : CinemaniaHDD.Net
    Uploader                    : Melkor

    Video
    ID                          : 1
    Format                      : AVC
    Format/Info                 : Advanced Video Codec
    Format profile              : High@L4
    Format settings             : CABAC / 4 Ref Frames
    Format settings, CABAC      : Yes
    Format settings, Reference  : 4 frames
    Codec ID                    : V_MPEG4/ISO/AVC
    Duration                    : 1 h 49 min
    Bit rate mode               : Constant
    Bit rate                    : 5 903 kb/s
    Nominal bit rate            : 10 000 kb/s
    Width                       : 1 920 pixels
    Height                      : 1 040 pixels
    Display aspect ratio        : 1.85:1
    Frame rate mode             : Constant
    Frame rate                  : 23.976 (24000/1001) FPS
    Color space                 : YUV
    Chroma subsampling          : 4:2:0
    Bit depth                   : 8 bits
    Scan type                   : Progressive
    Bits/(Pixel*Frame)          : 0.123
    Stream size                 : 4.51 GiB (83%)
    Title                       : Web HD1080p [CinemaniaHDD]
    Default                     : Yes
    Forced                      : Yes
    Color range                 : Limited
    Color primaries             : BT.709
    Transfer characteristics    : BT.709
    Matrix coefficients         : BT.709

    Audio #1
    ID                          : 2
    Format                      : AC-3
    Format/Info                 : Audio Coding 3
    Commercial name             : Dolby Digital
    Codec ID                    : A_AC3
    Duration                    : 1 h 48 min
    Bit rate mode               : Constant
    Bit rate                    : 448 kb/s
    Channel(s)                  : 6 channels
    Channel layout              : L R C LFE Ls Rs
    Sampling rate               : 48.0 kHz
    Frame rate                  : 31.250 FPS (1536 SPF)
    Compression mode            : Lossy
    Stream size                 : 346 MiB (6%)
    Title                       : Español Latino [CinemaniaHDD]
    Language                    : Spanish
    Service kind                : Complete Main
    Default                     : Yes
    Forced                      : Yes

    Audio #2
    ID                          : 3
    Format                      : E-AC-3 JOC
    Format/Info                 : Enhanced AC-3 with Joint Object Coding
    Commercial name             : Dolby Digital Plus with Dolby Atmos
    Codec ID                    : A_EAC3
    Duration                    : 1 h 48 min
    Bit rate mode               : Constant
    Bit rate                    : 768 kb/s
    Channel(s)                  : 6 channels
    Channel layout              : L R C LFE Ls Rs
    Sampling rate               : 48.0 kHz
    Frame rate                  : 31.250 FPS (1536 SPF)
    Compression mode            : Lossy
    Stream size                 : 594 MiB (11%)
    Title                       : Ingles [CinemaniaHDD]
    Language                    : English
    Service kind                : Complete Main
    Default                     : No
    Forced                      : No
    Complexity index            : 16
    Number of dynamic objects   : 15
    Bed channel count           : 1 channel
    Bed channel configuration   : LFE

    Text #1
    ID                          : 4
    Format                      : UTF-8
    Codec ID                    : S_TEXT/UTF8
    Codec ID/Info               : UTF-8 Plain Text
    Duration                    : 1 h 40 min
    Bit rate                    : 1 b/s
    Count of elements           : 17
    Stream size                 : 800 Bytes (0%)
    Title                       : Forzados-SRT [CinemaniaHDD]
    Language                    : Spanish
    Default                     : Yes
    Forced                      : Yes

    Text #2
    ID                          : 5
    Format                      : UTF-8
    Codec ID                    : S_TEXT/UTF8
    Codec ID/Info               : UTF-8 Plain Text
    Duration                    : 1 h 40 min
    Bit rate                    : 43 b/s
    Count of elements           : 1071
    Stream size                 : 32.2 KiB (0%)
    Title                       : Español-SRT [CinemaniaHDD]
    Language                    : Spanish
    Default                     : No
    Forced                      : No

    Text #3
    ID                          : 6
    Format                      : UTF-8
    Codec ID                    : S_TEXT/UTF8
    Codec ID/Info               : UTF-8 Plain Text
    Duration                    : 1 h 39 min
    Bit rate                    : 44 b/s
    Count of elements           : 1198
    Stream size                 : 32.5 KiB (0%)
    Title                       : Ingles-SRT [CinemaniaHDD]
    Language                    : English
    Default                     : No
    Forced                      : No

  • Peso: 5.43 GiB

Sinopsis

Descargar Chevalier: Pasión y Libertad (2023) AMZN WEB-DL 1080p Latino. Biopic de Chevalier de Saint-Georges, hijo de un esclavo africano que alcanzó el éxito en la sociedad francesa del siglo XVIII, como virtuoso violinista y compositor, y renombrado campeón de esgrima.

Ficha técnica

Video trailer de la película

Enlaces de descarga

Rip de Bluray

Descargar Chevalier: Pasión y Libertad (2023) AMZN WEB-DL 1080p Latino




Aportes de DPeliculasHDmega la pass es:dpeliculashdmega.org Aportes de CinemaniaHD la pass es:cinemaniahdd.com Aportes recientes:cinemaniahdd.net
Guardado en : Drama , Historia , Música

Películas relacionadas

descargar Chevalier: Pasión y Libertad (2023) AMZN WEB-DL 1080p Latino WEBDL 1080p gratis, Chevalier: Pasión y Libertad (2023) AMZN WEB-DL 1080p Latino WEBDL mega 1 link, Chevalier: Pasión y Libertad (2023) AMZN WEB-DL 1080p Latino WEBDL pelicula completa, descargar Chevalier: Pasión y Libertad (2023) AMZN WEB-DL 1080p Latino WEBDL gratis en mega.

Chevalier: Pasión y Libertad (2023) AMZN WEB-DL 1080p Latino pelicula full hd, Chevalier: Pasión y Libertad (2023) AMZN WEB-DL 1080p Latino mega latino, Chevalier: Pasión y Libertad (2023) AMZN WEB-DL 1080p Latino 4k latino, Chevalier: Pasión y Libertad (2023) AMZN WEB-DL 1080p Latino pelicula completa, Chevalier: Pasión y Libertad (2023) AMZN WEB-DL 1080p Latino descargar gratis, descargar Chevalier: Pasión y Libertad (2023) AMZN WEB-DL 1080p Latino pelicula latino, Chevalier: Pasión y Libertad (2023) AMZN WEB-DL 1080p Latino 1 link mega, Chevalier: Pasión y Libertad (2023) AMZN WEB-DL 1080p Latino 1 link google drive, Chevalier: Pasión y Libertad (2023) AMZN WEB-DL 1080p Latino hd 1080p latino.
Comentarios 0