×

¿Problemas para descargar con Mozilla, EDGE? Deshabilita la opción "Abrir vinculos en una pestaña nueva" tal como lo muestra ésta imagen.

Chernovik: El Guardian de los mundos (2018) REMUX 1080p Latino

198 vistas

Información de Chernovik: El Guardian de los mundos (2018) REMUX 1080p Latino

Datos de la película

  • Calidad: Full 1080p
  • Audio: Se especifica abajo de la Sinopsis
  • Subtitulos: Español Latino SRT- FORZADOS SRT
  • Resolución: 1920x1080p
  • Formato: MKV
  • Codec: H.264
  • Encoder: Melkor
  • Mediainfo: Clic para Mostrar Datos Ver
  • Chernovik (2018) REMUX 1080p Latino.mkv
    Format                      : Matroska
    Format version              : Version 4
    File size                   : 31.3 GiB
    Duration                    : 1 h 55 min
    Overall bit rate mode       : Variable
    Overall bit rate            : 38.8 Mb/s
    Movie name                  : A Rough Draft: Chernovik (2018) CinemaniaHDD.Net
    Encoded date                : UTC 2021-01-25 04:04:04
    Writing application         : mkvmerge v51.0.0 ('I Wish') 64-bit
    Writing library             : libebml v1.4.0 + libmatroska v1.6.2
    Attachments                 : CINEMANIAHD.png

    Video
    ID                          : 1
    ID in the original source m : 4113 (0x1011)
    Format                      : AVC
    Format/Info                 : Advanced Video Codec
    Format profile              : High@L4.1
    Format settings             : CABAC / 4 Ref Frames
    Format settings, CABAC      : Yes
    Format settings, Reference  : 4 frames
    Codec ID                    : V_MPEG4/ISO/AVC
    Duration                    : 1 h 55 min
    Bit rate mode               : Variable
    Bit rate                    : 34.6 Mb/s
    Maximum bit rate            : 36.0 Mb/s
    Width                       : 1 920 pixels
    Height                      : 1 080 pixels
    Display aspect ratio        : 16:9
    Frame rate mode             : Constant
    Frame rate                  : 24.000 FPS
    Color space                 : YUV
    Chroma subsampling          : 4:2:0
    Bit depth                   : 8 bits
    Scan type                   : Progressive
    Bits/(Pixel*Frame)          : 0.695
    Stream size                 : 27.9 GiB (89%)
    Title                       : REMUX 1080p [CinemaniaHDD]
    Default                     : Yes
    Forced                      : Yes
    Original source medium      : Blu-ray

    Audio #1
    ID                          : 2
    Format                      : AC-3
    Format/Info                 : Audio Coding 3
    Commercial name             : Dolby Digital
    Codec ID                    : A_AC3
    Duration                    : 1 h 55 min
    Bit rate mode               : Constant
    Bit rate                    : 256 kb/s
    Channel(s)                  : 2 channels
    Channel layout              : L R
    Sampling rate               : 48.0 kHz
    Frame rate                  : 31.250 FPS (1536 SPF)
    Compression mode            : Lossy
    Stream size                 : 212 MiB (1%)
    Title                       : Español Latino [CinemaniaHDD]
    Language                    : Spanish
    Service kind                : Complete Main
    Default                     : Yes
    Forced                      : Yes

    Audio #2
    ID                          : 3
    ID in the original source m : 4353 (0x1101)
    Format                      : DTS XLL
    Format/Info                 : Digital Theater Systems
    Commercial name             : DTS-HD Master Audio
    Codec ID                    : A_DTS
    Duration                    : 1 h 55 min
    Bit rate mode               : Variable
    Bit rate                    : 3 934 kb/s
    Channel(s)                  : 6 channels
    Channel layout              : C L R Ls Rs LFE
    Sampling rate               : 48.0 kHz
    Frame rate                  : 93.750 FPS (512 SPF)
    Bit depth                   : 24 bits
    Compression mode            : Lossless
    Stream size                 : 3.18 GiB (10%)
    Title                       : Ruso [CinemaniaHDD]
    Language                    : Russian
    Default                     : No
    Forced                      : No
    Original source medium      : Blu-ray

    Text #1
    ID                          : 4
    Format                      : UTF-8
    Codec ID                    : S_TEXT/UTF8
    Codec ID/Info               : UTF-8 Plain Text
    Duration                    : 1 h 36 min
    Bit rate                    : 0 b/s
    Count of elements           : 20
    Stream size                 : 406 Bytes (0%)
    Title                       : Forzados-SRT [CinemaniaHDD]
    Language                    : Spanish
    Default                     : Yes
    Forced                      : Yes

    Text #2
    ID                          : 5
    Format                      : UTF-8
    Codec ID                    : S_TEXT/UTF8
    Codec ID/Info               : UTF-8 Plain Text
    Duration                    : 1 h 50 min
    Bit rate                    : 46 b/s
    Count of elements           : 1237
    Stream size                 : 37.5 KiB (0%)
    Title                       : Español-SRT [CinemaniaHDD]
    Language                    : Spanish
    Default                     : No
    Forced                      : No

    Text #3
    ID                          : 6
    Format                      : UTF-8
    Codec ID                    : S_TEXT/UTF8
    Codec ID/Info               : UTF-8 Plain Text
    Duration                    : 1 h 50 min
    Bit rate                    : 43 b/s
    Count of elements           : 1559
    Stream size                 : 34.7 KiB (0%)
    Title                       : Ingles-SRT [CinemaniaHDD]
    Language                    : English
    Default                     : No
    Forced                      : No

    Menu
    00:00:00.000                : en:Chapter 01
    00:02:40.291                : en:Chapter 02
    00:05:48.375                : en:Chapter 03
    00:10:01.333                : en:Chapter 04
    00:13:08.041                : en:Chapter 05
    00:19:07.000                : en:Chapter 06
    00:22:56.333                : en:Chapter 07
    00:29:18.625                : en:Chapter 08
    00:36:24.583                : en:Chapter 09
    00:41:59.583                : en:Chapter 10
    00:46:21.208                : en:Chapter 11
    00:52:56.291                : en:Chapter 12
    01:00:12.416                : en:Chapter 13
    01:03:48.333                : en:Chapter 14
    01:12:32.458                : en:Chapter 15
    01:18:14.583                : en:Chapter 16
    01:21:37.291                : en:Chapter 17
    01:25:17.125                : en:Chapter 18
    01:28:57.083                : en:Chapter 19
    01:32:48.208                : en:Chapter 20
    01:37:04.000                : en:Chapter 21
    01:44:50.333                : en:Chapter 22
    01:47:57.250                : en:Chapter 23
    01:50:27.958                : en:Chapter 24

  • Peso: 31.3 GiB

Sinopsis

Descargar Chernovik: El Guardian de los mundos (2018) REMUX 1080p Latino. La identidad de Kirill ha sido eliminada. Borrado de los recuerdos de todos aquellos que le rodean, Kirill se ve forzado a ejercer de guardián de una puerta que comunica mundos paralelos. De la imaginación de Sergey Lukyanenko surgió el taquillazo Guardianes de la noche. Ahora nos llega otra adaptación del autor ruso, una ciencia ficción que convierte Moscú en un sinfín de escenarios distintos… y con matrioscas voladoras.

Español Latino AC3 2.0 WebDL – Ruso DTS-HD 5.1 Bluray

Ficha técnica

Video trailer de la película

Enlaces de descarga

Rip de Bluray

Descargar Chernovik: El Guardian de los mundos (2018) REMUX 1080p Latino




Aportes de DPeliculasHDmega la pass es:dpeliculashdmega.org Aportes de CinemaniaHD la pass es:cinemaniahdd.com

Películas relacionadas

  • El Lobo Y El Leon (2021) REMUX 1080p Latino

    El Lobo Y El Leon (2021) REMUX 1080p Latino

    2021
    El Lobo Y El Leon (2021) REMUX 1080p Latino

    1h 39m 2021

    Descargar El Lobo Y El Leon (2021) REMUX 1080p Latino. A la muerte de su abuelo, Alma, un joven pianista...

    Director: Gilles de Maistre

    Género: Aventura

    Actores: Victor Cornfoot

  • La Mujer Rey (2022) WEB-DL 1080p Latino

    La Mujer Rey (2022) WEB-DL 1080p Latino

    2022
    La Mujer Rey (2022) WEB-DL 1080p Latino

    2h 15m 2022

    Descargar La Mujer Rey (2022) WEB-DL 1080p Latino. Una epopeya histórica inspirada en los hechos reales...

    Director: Gina Prince-Bythewood

    Género: Acción

    Actores: Wanda Banda

  • Black Adam (2022) WEB-DL 4K UHD HDR Latino

    Black Adam (2022) WEB-DL 4K UHD HDR Latino

    2022
    Black Adam (2022) WEB-DL 4K UHD HDR Latino

    2h 4m 2022

    Descargar Black Adam (2022) WEB-DL 4K UHD HDR Latino. Casi 5.000 años después de haber sido dotado...

    Director: Jaume Collet-Serra

    Género: 4K HDR

    Actores: Yssa Mei Panganiban

  • Black Adam (2022) MA WEB-DL 1080p Latino

    Black Adam (2022) MA WEB-DL 1080p Latino

    2022
    Black Adam (2022) MA WEB-DL 1080p Latino

    2h 4m 2022

    Descargar Black Adam (2022) MA WEB-DL 1080p Latino. Casi 5.000 años después de haber sido dotado de...

    Director: Jaume Collet-Serra

    Género: Acción

    Actores: Yssa Mei Panganiban

descargar Chernovik: El Guardian de los mundos (2018) REMUX 1080p Latino Full 1080p 1080p gratis, Chernovik: El Guardian de los mundos (2018) REMUX 1080p Latino Full 1080p mega 1 link, Chernovik: El Guardian de los mundos (2018) REMUX 1080p Latino Full 1080p pelicula completa, descargar Chernovik: El Guardian de los mundos (2018) REMUX 1080p Latino Full 1080p gratis en mega.

Chernovik: El Guardian de los mundos (2018) REMUX 1080p Latino pelicula full hd, Chernovik: El Guardian de los mundos (2018) REMUX 1080p Latino mega latino, Chernovik: El Guardian de los mundos (2018) REMUX 1080p Latino 4k latino, Chernovik: El Guardian de los mundos (2018) REMUX 1080p Latino pelicula completa, Chernovik: El Guardian de los mundos (2018) REMUX 1080p Latino descargar gratis, descargar Chernovik: El Guardian de los mundos (2018) REMUX 1080p Latino pelicula latino, Chernovik: El Guardian de los mundos (2018) REMUX 1080p Latino 1 link mega, Chernovik: El Guardian de los mundos (2018) REMUX 1080p Latino 1 link google drive, Chernovik: El Guardian de los mundos (2018) REMUX 1080p Latino hd 1080p latino.
Comentarios 0