×

¿Problemas para descargar con Mozilla, EDGE? Deshabilita la opción "Abrir vinculos en una pestaña nueva" tal como lo muestra ésta imagen.

Chernovik: El Guardian de los mundos (2018) PLACEBO Full HD 1080p Latino

383 vistas

Información de Chernovik: El Guardian de los mundos (2018) PLACEBO Full HD 1080p Latino

Datos de la película

  • Calidad: Full 1080p
  • Audio: Se especifica abajo de la Sinopsis
  • Subtitulos: Español Latino SRT- FORZADOS SRT
  • Resolución: 1920x1080p
  • Formato: MKV
  • Codec: H.264
  • Encoder: Melkor
  • Mediainfo: Clic para Mostrar Datos Ver
  • Chernovik (2018) PLACEBO Full HD 1080p Latino.mkv
    Format                      : Matroska
    Format version              : Version 4
    File size                   : 5.84 GiB
    Duration                    : 1 h 55 min
    Overall bit rate            : 7 233 kb/s
    Movie name                  : A Rough Draft: Chernovik (2018) CinemaniaHDD.Net
    Encoded date                : UTC 2021-01-27 17:21:04
    Writing application         : mkvmerge v51.0.0 ('I Wish') 64-bit
    Writing library             : libebml v1.4.0 + libmatroska v1.6.2
    Attachments                 : CINEMANIAHD.png

    Video
    ID                          : 1
    Format                      : AVC
    Format/Info                 : Advanced Video Codec
    Format profile              : High@L4.1
    Format settings             : CABAC / 4 Ref Frames
    Format settings, CABAC      : Yes
    Format settings, Reference  : 4 frames
    Codec ID                    : V_MPEG4/ISO/AVC
    Duration                    : 1 h 55 min
    Bit rate                    : 5 466 kb/s
    Width                       : 1 920 pixels
    Height                      : 1 080 pixels
    Display aspect ratio        : 16:9
    Frame rate mode             : Constant
    Frame rate                  : 24.000 FPS
    Color space                 : YUV
    Chroma subsampling          : 4:2:0
    Bit depth                   : 8 bits
    Scan type                   : Progressive
    Bits/(Pixel*Frame)          : 0.110
    Stream size                 : 4.41 GiB (76%)
    Title                       : Full HD1080p [CinemaniaHDD]
    Writing library             : x264 core 157 r2935 545de2f
    Encoding settings           : cabac=1 / ref=4 / deblock=1:0:0 / analyse=0x3:0x133 / me=tesa / subme=11 / psy=1 / psy_rd=1.00:0.00 / mixed_ref=1 / me_range=24 / chroma_me=1 / trellis=2 / 8x8dct=1 / cqm=0 / deadzone=21,11 / fast_pskip=0 / chroma_qp_offset=-2 / threads=24 / lookahead_threads=6 / sliced_threads=0 / nr=0 / decimate=1 / interlaced=0 / bluray_compat=0 / constrained_intra=0 / bframes=16 / b_pyramid=2 / b_adapt=2 / b_bias=0 / direct=3 / weightb=1 / open_gop=0 / weightp=2 / keyint=240 / keyint_min=24 / scenecut=40 / intra_refresh=0 / rc_lookahead=60 / rc=crf / mbtree=1 / crf=20.0 / qcomp=0.60 / qpmin=0 / qpmax=69 / qpstep=4 / vbv_maxrate=62500 / vbv_bufsize=78125 / crf_max=0.0 / nal_hrd=none / filler=0 / ip_ratio=1.40 / aq=1:1.00
    Default                     : Yes
    Forced                      : Yes
    Color range                 : Limited
    Color primaries             : BT.709
    Transfer characteristics    : BT.709
    Matrix coefficients         : BT.709

    Audio #1
    ID                          : 2
    Format                      : AC-3
    Format/Info                 : Audio Coding 3
    Commercial name             : Dolby Digital
    Codec ID                    : A_AC3
    Duration                    : 1 h 55 min
    Bit rate mode               : Constant
    Bit rate                    : 256 kb/s
    Channel(s)                  : 2 channels
    Channel layout              : L R
    Sampling rate               : 48.0 kHz
    Frame rate                  : 31.250 FPS (1536 SPF)
    Compression mode            : Lossy
    Stream size                 : 212 MiB (4%)
    Title                       : Español Latino [CinemaniaHDD]
    Language                    : Spanish
    Service kind                : Complete Main
    Default                     : Yes
    Forced                      : Yes

    Audio #2
    ID                          : 3
    Format                      : DTS
    Format/Info                 : Digital Theater Systems
    Codec ID                    : A_DTS
    Duration                    : 1 h 55 min
    Bit rate mode               : Constant
    Bit rate                    : 1 509 kb/s
    Channel(s)                  : 6 channels
    Channel layout              : C L R Ls Rs LFE
    Sampling rate               : 48.0 kHz
    Frame rate                  : 93.750 FPS (512 SPF)
    Bit depth                   : 24 bits
    Compression mode            : Lossy
    Stream size                 : 1.22 GiB (21%)
    Title                       : Ruso [CinemaniaHDD]
    Language                    : Russian
    Default                     : No
    Forced                      : No

    Text #1
    ID                          : 4
    Format                      : UTF-8
    Codec ID                    : S_TEXT/UTF8
    Codec ID/Info               : UTF-8 Plain Text
    Duration                    : 1 h 36 min
    Bit rate                    : 0 b/s
    Count of elements           : 20
    Stream size                 : 406 Bytes (0%)
    Title                       : Forzados-SRT [CinemaniaHDD]
    Language                    : Spanish
    Default                     : Yes
    Forced                      : Yes

    Text #2
    ID                          : 5
    Format                      : UTF-8
    Codec ID                    : S_TEXT/UTF8
    Codec ID/Info               : UTF-8 Plain Text
    Duration                    : 1 h 50 min
    Bit rate                    : 46 b/s
    Count of elements           : 1237
    Stream size                 : 37.5 KiB (0%)
    Title                       : Español-SRT [CinemaniaHDD]
    Language                    : Spanish
    Default                     : No
    Forced                      : No

    Text #3
    ID                          : 6
    Format                      : UTF-8
    Codec ID                    : S_TEXT/UTF8
    Codec ID/Info               : UTF-8 Plain Text
    Duration                    : 1 h 50 min
    Bit rate                    : 43 b/s
    Count of elements           : 1559
    Stream size                 : 34.7 KiB (0%)
    Title                       : Ingles-SRT [CinemaniaHDD]
    Language                    : English
    Default                     : No
    Forced                      : No

    Menu
    00:00:00.000                : en:Chapter 01
    00:02:40.291                : en:Chapter 02
    00:05:48.375                : en:Chapter 03
    00:10:01.333                : en:Chapter 04
    00:13:08.041                : en:Chapter 05
    00:19:07.000                : en:Chapter 06
    00:22:56.333                : en:Chapter 07
    00:29:18.625                : en:Chapter 08
    00:36:24.583                : en:Chapter 09
    00:41:59.583                : en:Chapter 10
    00:46:21.208                : en:Chapter 11
    00:52:56.291                : en:Chapter 12
    01:00:12.416                : en:Chapter 13
    01:03:48.333                : en:Chapter 14
    01:12:32.458                : en:Chapter 15
    01:18:14.583                : en:Chapter 16
    01:21:37.291                : en:Chapter 17
    01:25:17.125                : en:Chapter 18
    01:28:57.083                : en:Chapter 19
    01:32:48.208                : en:Chapter 20
    01:37:04.000                : en:Chapter 21
    01:44:50.333                : en:Chapter 22
    01:47:57.250                : en:Chapter 23
    01:50:27.958                : en:Chapter 24

  • Peso: 5.84 GiB

Sinopsis

Descargar Chernovik: El Guardian de los mundos (2018) PLACEBO Full HD 1080p Latino. La identidad de Kirill ha sido eliminada. Borrado de los recuerdos de todos aquellos que le rodean, Kirill se ve forzado a ejercer de guardián de una puerta que comunica mundos paralelos. De la imaginación de Sergey Lukyanenko surgió el taquillazo Guardianes de la noche. Ahora nos llega otra adaptación del autor ruso, una ciencia ficción que convierte Moscú en un sinfín de escenarios distintos… y con matrioscas voladoras.

Español Latino AC3 2.0 WebDL – Ruso DTS 5.1 Bluray

Ficha técnica

Video trailer de la película

Enlaces de descarga

Rip de Bluray

Descargar Chernovik: El Guardian de los mundos (2018) PLACEBO Full HD 1080p Latino




Aportes de DPeliculasHDmega la pass es:dpeliculashdmega.org Aportes de CinemaniaHD la pass es:cinemaniahdd.com

Películas relacionadas

  • Corazón de tinta (2008) Full HD 1080p Latino

    Corazón de tinta (2008) Full HD 1080p Latino

    2008
    Corazón de tinta (2008) Full HD 1080p Latino

    1h 46m 2008

    Descargar Corazón de tinta (2008) Full HD 1080p Latino. Mortimer “Mo” Folchart y su hija de 12 años,...

    Director: Sharon Mansfield

    Género: Aventura

    Actores: Terry Cavanagh

  • Corazón de tinta (2008) REMUX 1080p Latino

    Corazón de tinta (2008) REMUX 1080p Latino

    2008
    Corazón de tinta (2008) REMUX 1080p Latino

    1h 46m 2008

    Descargar Corazón de tinta (2008) REMUX 1080p Latino. Mortimer “Mo” Folchart y su hija de 12 años,...

    Director: Sharon Mansfield

    Género: Aventura

    Actores: Tereza Srbová

  • Juego de espías (2001) 1080p Latino

    Juego de espías (2001) 1080p Latino

    2001
    Juego de espías (2001) 1080p Latino

    2h 6m 2001

    Descargar Juego de espías (2001) 1080p Latino. Corre el año 1991, y al veterano agente de la CIA Nathan...

    Director: Tony Scott

    Género: Acción

    Actores: Zsolt Zágoni

  • Juego de espías (2001) Full HD 1080p Latino

    Juego de espías (2001) Full HD 1080p Latino

    2001
    Juego de espías (2001) Full HD 1080p Latino

    2h 6m 2001

    Descargar Juego de espías (2001) Full HD 1080p Latino. Corre el año 1991, y al veterano agente de la...

    Director: Tony Scott

    Género: Acción

    Actores: Zsolt Zágoni

  • Juego de espías (2001) REMUX 1080p Latino

    Juego de espías (2001) REMUX 1080p Latino

    2001
    Juego de espías (2001) REMUX 1080p Latino

    1h 55m 2001

    Descargar Juego de espías (2001) REMUX 1080p Latino. El día de su jubilación, el veterano agente de...

    Director: Tony Scott

    Género: Acción

    Actores: Zsolt Zágoni

descargar Chernovik: El Guardian de los mundos (2018) PLACEBO Full HD 1080p Latino Full 1080p 1080p gratis, Chernovik: El Guardian de los mundos (2018) PLACEBO Full HD 1080p Latino Full 1080p mega 1 link, Chernovik: El Guardian de los mundos (2018) PLACEBO Full HD 1080p Latino Full 1080p pelicula completa, descargar Chernovik: El Guardian de los mundos (2018) PLACEBO Full HD 1080p Latino Full 1080p gratis en mega.

Chernovik: El Guardian de los mundos (2018) PLACEBO Full HD 1080p Latino pelicula full hd, Chernovik: El Guardian de los mundos (2018) PLACEBO Full HD 1080p Latino mega latino, Chernovik: El Guardian de los mundos (2018) PLACEBO Full HD 1080p Latino 4k latino, Chernovik: El Guardian de los mundos (2018) PLACEBO Full HD 1080p Latino pelicula completa, Chernovik: El Guardian de los mundos (2018) PLACEBO Full HD 1080p Latino descargar gratis, descargar Chernovik: El Guardian de los mundos (2018) PLACEBO Full HD 1080p Latino pelicula latino, Chernovik: El Guardian de los mundos (2018) PLACEBO Full HD 1080p Latino 1 link mega, Chernovik: El Guardian de los mundos (2018) PLACEBO Full HD 1080p Latino 1 link google drive, Chernovik: El Guardian de los mundos (2018) PLACEBO Full HD 1080p Latino hd 1080p latino.
Comentarios 0