×

¿Problemas para descargar con Mozilla, EDGE? Deshabilita la opción "Abrir vinculos en una pestaña nueva" tal como lo muestra ésta imagen.

Chernobyl Diaries (2012) REMUX 1080p Latino

825 vistas

Información de Chernobyl Diaries (2012) REMUX 1080p Latino

Datos de la película

  • Calidad: Full 1080p
  • Audio: Español Latino AC3 5.1 BLURAY - Ingles DTS 5.1 BLURAY
  • Subtitulos: Español Latino SRT
  • Resolución: 1920x1080p
  • Formato: MKV
  • Codec: H.264
  • Encoder: Dracarys
  • Mediainfo: Clic para Mostrar Datos Ver
  • Format                      : Matroska
    Format version              : Version 4
    File size                   : 12.0 GiB
    Duration                    : 1 h 25 min
    Overall bit rate mode       : Variable
    Overall bit rate            : 20.1 Mb/s
    Movie name                  : CinemaniaHDD.net
    Encoded date                : UTC 2020-01-15 00:13:04
    Writing application         : mkvmerge v38.0.0 ('The Silent Type') 64-bit
    Writing library             : libebml v1.3.9 + libmatroska v1.5.2
    Uploader | Encoder          : CharlX
    Web                         : www.gdrivelatinohd.site

    Video
    ID                          : 1
    Format                      : AVC
    Format/Info                 : Advanced Video Codec
    Format profile              : High@L4
    Format settings             : CABAC / 2 Ref Frames
    Format settings, CABAC      : Yes
    Format settings, ReFrames   : 2 frames
    Codec ID                    : V_MPEG4/ISO/AVC
    Duration                    : 1 h 25 min
    Bit rate mode               : Variable
    Bit rate                    : 17.9 Mb/s
    Width                       : 1 920 pixels
    Height                      : 1 080 pixels
    Display aspect ratio        : 16:9
    Frame rate mode             : Constant
    Frame rate                  : 23.976 (24000/1001) FPS
    Color space                 : YUV
    Chroma subsampling          : 4:2:0
    Bit depth                   : 8 bits
    Scan type                   : Progressive
    Bits/(Pixel*Frame)          : 0.360
    Stream size                 : 10.7 GiB (89%)
    Language                    : English
    Default                     : Yes
    Forced                      : No

    Audio #1
    ID                          : 2
    Format                      : DTS
    Format/Info                 : Digital Theater Systems
    Codec ID                    : A_DTS
    Duration                    : 1 h 25 min
    Bit rate mode               : Constant
    Bit rate                    : 1 509 kb/s
    Channel(s)                  : 6 channels
    Channel layout              : C L R Ls Rs LFE
    Sampling rate               : 48.0 kHz
    Frame rate                  : 93.750 FPS (512 SPF)
    Bit depth                   : 24 bits
    Compression mode            : Lossy
    Stream size                 : 927 MiB (8%)
    Language                    : English
    Default                     : No
    Forced                      : No

    Audio #2
    ID                          : 3
    Format                      : AC-3
    Format/Info                 : Audio Coding 3
    Commercial name             : Dolby Digital
    Codec ID                    : A_AC3
    Duration                    : 1 h 25 min
    Bit rate mode               : Constant
    Bit rate                    : 640 kb/s
    Channel(s)                  : 6 channels
    Channel layout              : L R C LFE Ls Rs
    Sampling rate               : 48.0 kHz
    Frame rate                  : 31.250 FPS (1536 SPF)
    Bit depth                   : 16 bits
    Compression mode            : Lossy
    Stream size                 : 393 MiB (3%)
    Language                    : Spanish
    Service kind                : Complete Main
    Default                     : Yes
    Forced                      : No

    Text #1
    ID                          : 4
    Format                      : UTF-8
    Codec ID                    : S_TEXT/UTF8
    Codec ID/Info               : UTF-8 Plain Text
    Duration                    : 1 h 25 min
    Bit rate                    : 55 b/s
    Count of elements           : 1104
    Stream size                 : 34.9 KiB (0%)
    Language                    : Spanish
    Default                     : No
    Forced                      : No

    Text #2
    ID                          : 5
    Format                      : PGS
    Muxing mode                 : zlib
    Codec ID                    : S_HDMV/PGS
    Codec ID/Info               : Picture based subtitle format used on BDs/HD-DVDs
    Duration                    : 1 h 25 min
    Bit rate                    : 31.7 kb/s
    Count of elements           : 2208
    Stream size                 : 19.4 MiB (0%)
    Language                    : Spanish
    Default                     : No
    Forced                      : No

    Menu
    00:00:00.000                : en:Chapter 01
    00:09:45.126                : en:Chapter 02
    00:20:03.493                : en:Chapter 03
    00:29:00.864                : en:Chapter 04
    00:39:22.777                : en:Chapter 05
    00:49:11.239                : en:Chapter 06
    01:00:14.110                : en:Chapter 07
    01:10:03.991                : en:Chapter 08
    01:20:26.530                : en:Chapter 09
     

  • Peso: 12.0 GiB

Sinopsis

Un grupo de amigos que están pasando las vacaciones en Europa van a a parar a Prypiat, una ciudad abandonada, donde se refugiaron después del accidente los trabajadores de la central nuclear de Chernobil; pero pronto se darán cuenta de que no están solos.

Ficha técnica

Video trailer de la película

Enlaces de descarga

Rip de Bluray

Descargar Chernobyl Diaries (2012) REMUX 1080p Latino




Aportes de DPeliculasHDmega la pass es:dpeliculashdmega.org Aportes de CinemaniaHD la pass es:cinemaniahdd.com
Guardado en : Remux , Suspenso , Terror

Películas relacionadas

descargar Chernobyl Diaries (2012) REMUX 1080p Latino Full 1080p 1080p gratis, Chernobyl Diaries (2012) REMUX 1080p Latino Full 1080p mega 1 link, Chernobyl Diaries (2012) REMUX 1080p Latino Full 1080p pelicula completa, descargar Chernobyl Diaries (2012) REMUX 1080p Latino Full 1080p gratis en mega.

Chernobyl Diaries (2012) REMUX 1080p Latino pelicula full hd, Chernobyl Diaries (2012) REMUX 1080p Latino mega latino, Chernobyl Diaries (2012) REMUX 1080p Latino 4k latino, Chernobyl Diaries (2012) REMUX 1080p Latino pelicula completa, Chernobyl Diaries (2012) REMUX 1080p Latino descargar gratis, descargar Chernobyl Diaries (2012) REMUX 1080p Latino pelicula latino, Chernobyl Diaries (2012) REMUX 1080p Latino 1 link mega, Chernobyl Diaries (2012) REMUX 1080p Latino 1 link google drive, Chernobyl Diaries (2012) REMUX 1080p Latino hd 1080p latino.
Comentarios 0