×

¿Problemas para descargar con Mozilla, EDGE? Deshabilita la opción "Abrir vinculos en una pestaña nueva" tal como lo muestra ésta imagen.

Chernóbil: La película (2021) REMUX 1080p Latino

313 vistas

Información de Chernóbil: La película (2021) REMUX 1080p Latino

Datos de la película

  • Calidad: Full 1080p
  • Audio: Se especifica abajo de la Sinopsis
  • Subtitulos: Español Latino SRT- FORZADOS SRT
  • Resolución: 1920x1080p
  • Formato: MKV
  • Codec: H.264
  • Encoder: Melkor
  • Mediainfo: Clic para Mostrar Datos Ver
  • Chernobil La Pelicula (2021) REMUX 1080p Latino.mkv
    Format                      : Matroska
    Format version              : Version 4
    File size                   : 28.9 GiB
    Duration                    : 2 h 16 min
    Overall bit rate mode       : Variable
    Overall bit rate            : 30.4 Mb/s
    Movie name                  : Chernobyl: Abyss (2021) [Kogda padali aisty] CinemaniaHDD.Net
    Encoded date                : UTC 2022-04-07 08:07:43
    Writing application         : mkvmerge v56.1.0 ('My Friend') 64-bit
    Writing library             : libebml v1.4.2 + libmatroska v1.6.4
    Attachments                 : CINEMANIAHD.png

    Video
    ID                          : 1
    Format                      : AVC
    Format/Info                 : Advanced Video Codec
    Format profile              : High@L4.1
    Format settings             : CABAC / 4 Ref Frames
    Format settings, CABAC      : Yes
    Format settings, Reference  : 4 frames
    Codec ID                    : V_MPEG4/ISO/AVC
    Duration                    : 2 h 16 min
    Bit rate mode               : Variable
    Bit rate                    : 24.9 Mb/s
    Maximum bit rate            : 30.0 Mb/s
    Width                       : 1 920 pixels
    Height                      : 1 080 pixels
    Display aspect ratio        : 16:9
    Frame rate mode             : Constant
    Frame rate                  : 24.000 FPS
    Color space                 : YUV
    Chroma subsampling          : 4:2:0
    Bit depth                   : 8 bits
    Scan type                   : Progressive
    Bits/(Pixel*Frame)          : 0.501
    Stream size                 : 23.7 GiB (82%)
    Title                       : REMUX HD1080p [CinemaniaHDD]
    Default                     : Yes
    Forced                      : Yes
    Color range                 : Limited
    Color primaries             : BT.709
    Transfer characteristics    : BT.709
    Matrix coefficients         : BT.709

    Audio #1
    ID                          : 2
    Format                      : AC-3
    Format/Info                 : Audio Coding 3
    Commercial name             : Dolby Digital
    Codec ID                    : A_AC3
    Duration                    : 2 h 16 min
    Bit rate mode               : Constant
    Bit rate                    : 640 kb/s
    Channel(s)                  : 6 channels
    Channel layout              : L R C LFE Ls Rs
    Sampling rate               : 48.0 kHz
    Frame rate                  : 31.250 FPS (1536 SPF)
    Compression mode            : Lossy
    Stream size                 : 624 MiB (2%)
    Title                       : Español Latino AC3 [CinemaniaHDD]
    Language                    : Spanish
    Service kind                : Complete Main
    Default                     : Yes
    Forced                      : Yes

    Audio #2
    ID                          : 3
    Format                      : DTS XLL
    Format/Info                 : Digital Theater Systems
    Commercial name             : DTS-HD Master Audio
    Codec ID                    : A_DTS
    Duration                    : 2 h 16 min
    Bit rate mode               : Variable
    Bit rate                    : 4 177 kb/s
    Channel(s)                  : 6 channels
    Channel layout              : C L R Ls Rs LFE
    Sampling rate               : 48.0 kHz
    Frame rate                  : 93.750 FPS (512 SPF)
    Bit depth                   : 24 bits
    Compression mode            : Lossless
    Stream size                 : 3.98 GiB (14%)
    Title                       : Ruso [CinemaniaHDD]
    Language                    : Russian
    Default                     : No
    Forced                      : No

    Audio #3
    ID                          : 4
    Format                      : E-AC-3
    Format/Info                 : Enhanced AC-3
    Codec ID                    : A_EAC3
    Duration                    : 2 h 15 min
    Bit rate                    : 640 kb/s
    Channel(s)                  : 6 channels
    Sampling rate               : 48.0 kHz
    Frame rate                  : 31.250 FPS (1536 SPF)
    Compression mode            : Lossy
    Stream size                 : 621 MiB (2%)
    Title                       : Español Latino EAC3 [CinemaniaHDD]
    Language                    : Spanish
    Default                     : No
    Forced                      : No

    Text #1
    ID                          : 5
    Format                      : UTF-8
    Codec ID                    : S_TEXT/UTF8
    Codec ID/Info               : UTF-8 Plain Text
    Duration                    : 2 h 4 min
    Bit rate                    : 0 b/s
    Count of elements           : 26
    Stream size                 : 883 Bytes (0%)
    Title                       : Forzados-SRT [CinemaniaHDD]
    Language                    : Spanish
    Default                     : Yes
    Forced                      : Yes

    Text #2
    ID                          : 6
    Format                      : UTF-8
    Codec ID                    : S_TEXT/UTF8
    Codec ID/Info               : UTF-8 Plain Text
    Duration                    : 2 h 11 min
    Bit rate                    : 41 b/s
    Count of elements           : 1181
    Stream size                 : 39.9 KiB (0%)
    Title                       : Español-SRT [CinemaniaHDD]
    Language                    : Spanish
    Default                     : No
    Forced                      : No

    Text #3
    ID                          : 7
    Format                      : UTF-8
    Codec ID                    : S_TEXT/UTF8
    Codec ID/Info               : UTF-8 Plain Text
    Duration                    : 2 h 8 min
    Bit rate                    : 34 b/s
    Count of elements           : 1036
    Stream size                 : 32.6 KiB (0%)
    Title                       : Ingles [CinemaniaHDD]
    Language                    : English
    Default                     : No
    Forced                      : No

    Menu
    00:00:00.000                : ru:Chapter 1
    00:17:18.916                : ru:Chapter 2
    00:34:18.541                : ru:Chapter 3
    00:50:42.375                : ru:Chapter 4
    01:07:19.583                : ru:Chapter 5
    01:25:18.000                : ru:Chapter 6
    01:36:17.958                : ru:Chapter 7
    01:47:06.708                : ru:Chapter 8
    02:03:34.958                : ru:Chapter 9
    02:07:12.125                : ru:Chapter 10
    02:16:19.500                : ru:Chapter 11

  • Peso: 28.9 GiB

Sinopsis

Descargar Chernóbil: La película (2021) REMUX 1080p Latino. Chernóbil: Abyss es el primer gran largometraje ruso sobre las consecuencias de la explosión de la central nuclear de Chernóbil, cuando cientos de personas sacrificaron sus vidas para limpiar el lugar de la catástrofe y evitar con éxito un desastre aún mayor que podría haber convertido una gran parte del continente europeo en una zona de exclusión inhabitable.

Español Latino EAC3 5.1 & AC3 5.1 WebDL – Ruso DTS-HD 5.1 BD
Actualizado con mejor Audio Latino en 5.1!!

Ficha técnica

Video trailer de la película

Enlaces de descarga

Rip de Bluray

Descargar Chernóbil: La película (2021) REMUX 1080p Latino




Aportes de DPeliculasHDmega la pass es:dpeliculashdmega.org Aportes de CinemaniaHD la pass es:cinemaniahdd.com
Guardado en : Aventura , Drama , Historia , Remux

Películas relacionadas

descargar Chernóbil: La película (2021) REMUX 1080p Latino Full 1080p 1080p gratis, Chernóbil: La película (2021) REMUX 1080p Latino Full 1080p mega 1 link, Chernóbil: La película (2021) REMUX 1080p Latino Full 1080p pelicula completa, descargar Chernóbil: La película (2021) REMUX 1080p Latino Full 1080p gratis en mega.

Chernóbil: La película (2021) REMUX 1080p Latino pelicula full hd, Chernóbil: La película (2021) REMUX 1080p Latino mega latino, Chernóbil: La película (2021) REMUX 1080p Latino 4k latino, Chernóbil: La película (2021) REMUX 1080p Latino pelicula completa, Chernóbil: La película (2021) REMUX 1080p Latino descargar gratis, descargar Chernóbil: La película (2021) REMUX 1080p Latino pelicula latino, Chernóbil: La película (2021) REMUX 1080p Latino 1 link mega, Chernóbil: La película (2021) REMUX 1080p Latino 1 link google drive, Chernóbil: La película (2021) REMUX 1080p Latino hd 1080p latino.
Comentarios 0