×

¿Problemas para descargar con Mozilla, EDGE? Deshabilita la opción "Abrir vinculos en una pestaña nueva" tal como lo muestra ésta imagen.

Charlie Wilson’s War (2007) REMUX 1080p Latino – CMHDD

130 vistas

Información de Charlie Wilson’s War (2007) REMUX 1080p Latino – CMHDD

Datos de la película

  • Calidad: Full 1080p
  • Audio: Español Latino DTS 5.1 BLURAY - Ingles DTS 5.1 BLURAY
  • Subtitulos: Español Latino PGS
  • Resolución: 1920x1080p
  • Formato: MKV
  • Codec: H.264
  • Encoder: Dracarys
  • Mediainfo: Clic para Mostrar Datos Ver
  • Format                      : Matroska
    Format version              : Version 4
    File size                   : 24.2 GiB
    Duration                    : 1 h 41 min
    Overall bit rate mode       : Variable
    Overall bit rate            : 34.0 Mb/s
    Movie name                  : Charlie Wilson's War (2007) REMUX 1080p Latino - CMHDD
    Encoded date                : UTC 2021-09-12 01:28:41
    Writing application         : mkvmerge v17.0.0 ('Be Ur Friend') 64-bit
    Writing library             : libebml v1.3.5 + libmatroska v1.4.8

    Video
    ID                          : 1
    Format                      : VC-1
    Format profile              : Advanced@L3
    Codec ID                    : V_MS/VFW/FOURCC / WVC1
    Codec ID/Hint               : Microsoft
    Duration                    : 1 h 41 min
    Bit rate                    : 29.5 Mb/s
    Width                       : 1 920 pixels
    Height                      : 1 080 pixels
    Display aspect ratio        : 16:9
    Frame rate mode             : Constant
    Frame rate                  : 23.976 (24000/1001) FPS
    Color space                 : YUV
    Chroma subsampling          : 4:2:0
    Bit depth                   : 8 bits
    Scan type                   : Progressive
    Compression mode            : Lossy
    Bits/(Pixel*Frame)          : 0.593
    Stream size                 : 21.0 GiB (87%)
    Default                     : Yes
    Forced                      : No

    Audio #1
    ID                          : 2
    Format                      : DTS XLL
    Format/Info                 : Digital Theater Systems
    Commercial name             : DTS-HD Master Audio
    Codec ID                    : A_DTS
    Duration                    : 1 h 41 min
    Bit rate mode               : Variable
    Bit rate                    : 3 711 kb/s
    Channel(s)                  : 6 channels
    Channel layout              : C L R Ls Rs LFE
    Sampling rate               : 48.0 kHz
    Frame rate                  : 93.750 FPS (512 SPF)
    Bit depth                   : 24 bits
    Compression mode            : Lossless
    Stream size                 : 2.64 GiB (11%)
    Language                    : English
    Default                     : No
    Forced                      : No

    Audio #2
    ID                          : 3
    Format                      : DTS
    Format/Info                 : Digital Theater Systems
    Codec ID                    : A_DTS
    Duration                    : 1 h 41 min
    Bit rate mode               : Constant
    Bit rate                    : 768 kb/s
    Channel(s)                  : 6 channels
    Channel layout              : C L R Ls Rs LFE
    Sampling rate               : 48.0 kHz
    Frame rate                  : 93.750 FPS (512 SPF)
    Bit depth                   : 24 bits
    Compression mode            : Lossy
    Stream size                 : 559 MiB (2%)
    Language                    : Spanish
    Default                     : Yes
    Forced                      : No

    Text
    ID                          : 4
    Format                      : PGS
    Muxing mode                 : zlib
    Codec ID                    : S_HDMV/PGS
    Codec ID/Info               : Picture based subtitle format used on BDs/HD-DVDs
    Duration                    : 1 h 31 min
    Bit rate                    : 46.9 kb/s
    Count of elements           : 3200
    Stream size                 : 30.8 MiB (0%)
    Language                    : Spanish
    Default                     : Yes
    Forced                      : No

    Menu
    00:00:00.000                : en:Chapter 1
    00:03:07.437                : en:Chapter 2
    00:08:05.735                : en:Chapter 3
    00:17:13.866                : en:Chapter 4
    00:21:30.289                : en:Chapter 5
    00:25:47.587                : en:Chapter 6
    00:28:46.224                : en:Chapter 7
    00:34:59.514                : en:Chapter 8
    00:39:04.884                : en:Chapter 9
    00:43:50.127                : en:Chapter 10
    00:52:53.503                : en:Chapter 11
    00:57:14.556                : en:Chapter 12
    01:00:54.025                : en:Chapter 13
    01:04:16.143                : en:Chapter 14
    01:07:18.701                : en:Chapter 15
    01:14:29.131                : en:Chapter 16
    01:17:40.906                : en:Chapter 17
    01:22:38.787                : en:Chapter 18
    01:27:15.230                : en:Chapter 19
    01:33:54.670                : en:Chapter 20

  • Peso: 24.2 GiB

Sinopsis

Un drama basado en las relaciones encubiertas en Afganistán del miembro del congreso de Texas Charlie Wilson, y de sus esfuerzos para ayudar a los rebeldes en su guerra contra los soviéticos, que tienen algunos efectos imprevistos y de largo alcance.

Ficha técnica

Video trailer de la película

Enlaces de descarga

Rip de Bluray

Descargar Charlie Wilson’s War (2007) REMUX 1080p Latino – CMHDD


Aportes de DPeliculasHDmega la pass es:dpeliculashdmega.org Aportes de CinemaniaHD la pass es:cinemaniahdd.com
Guardado en : Comedia , Drama , Historia

Películas relacionadas

descargar Charlie Wilson’s War (2007) REMUX 1080p Latino – CMHDD Full 1080p 1080p gratis, Charlie Wilson’s War (2007) REMUX 1080p Latino – CMHDD Full 1080p mega 1 link, Charlie Wilson’s War (2007) REMUX 1080p Latino – CMHDD Full 1080p pelicula completa, descargar Charlie Wilson’s War (2007) REMUX 1080p Latino – CMHDD Full 1080p gratis en mega.

Charlie Wilson’s War (2007) REMUX 1080p Latino – CMHDD pelicula full hd, Charlie Wilson’s War (2007) REMUX 1080p Latino – CMHDD mega latino, Charlie Wilson’s War (2007) REMUX 1080p Latino – CMHDD 4k latino, Charlie Wilson’s War (2007) REMUX 1080p Latino – CMHDD pelicula completa, Charlie Wilson’s War (2007) REMUX 1080p Latino – CMHDD descargar gratis, descargar Charlie Wilson’s War (2007) REMUX 1080p Latino – CMHDD pelicula latino, Charlie Wilson’s War (2007) REMUX 1080p Latino – CMHDD 1 link mega, Charlie Wilson’s War (2007) REMUX 1080p Latino – CMHDD 1 link google drive, Charlie Wilson’s War (2007) REMUX 1080p Latino – CMHDD hd 1080p latino.