×

¿Problemas para descargar con Mozilla, EDGE? Deshabilita la opción "Abrir vinculos en una pestaña nueva" tal como lo muestra ésta imagen.

Charlie Says (2018) 1080p Latino

1.131 vistas

Información de Charlie Says (2018) 1080p Latino

Datos de la película

  • Calidad: 1080p
  • Audio: Español Latino AC3 2.0 Capturado - Ingles AC3 5.1 BLURAY
  • Subtitulos: Español Latino SRT- FORZADOS SRT
  • Resolución: 1920x800
  • Formato: MKV
  • Codec: H.264
  • Encoder: cinemaniahdd
  • Mediainfo: Clic para Mostrar Datos Ver
  • Charlie Says (2018) 1080p Latino.mkv
    Format                      : Matroska
    Format version              : Version 4
    File size                   : 3.14 GiB
    Duration                    : 1 h 50 min
    Overall bit rate            : 4 082 kb/s
    Movie name                  : Charlie Says (2018) - CinemaniaHDD.Net
    Encoded date                : UTC 2020-03-09 17:31:59
    Writing application         : mkvmerge v42.0.0 ('Overtime') 64-bit
    Writing library             : libebml v1.3.10 + libmatroska v1.5.2

    Video
    ID                          : 1
    Format                      : AVC
    Format/Info                 : Advanced Video Codec
    Format profile              : Main@L4
    Format settings             : CABAC / 5 Ref Frames
    Format settings, CABAC      : Yes
    Format settings, ReFrames   : 5 frames
    Codec ID                    : V_MPEG4/ISO/AVC
    Duration                    : 1 h 50 min
    Bit rate                    : 3 500 kb/s
    Width                       : 1 920 pixels
    Height                      : 800 pixels
    Display aspect ratio        : 2.40:1
    Frame rate mode             : Constant
    Frame rate                  : 23.976 (24000/1001) FPS
    Color space                 : YUV
    Chroma subsampling          : 4:2:0
    Bit depth                   : 8 bits
    Scan type                   : Progressive
    Bits/(Pixel*Frame)          : 0.095
    Stream size                 : 2.59 GiB (83%)
    Title                       : CinemaniaHDD
    Writing library             : x264 core 157 r2935 545de2f
    Encoding settings           : cabac=1 / ref=5 / deblock=1:0:0 / analyse=0x1:0x111 / me=hex / subme=8 / psy=1 / psy_rd=1.00:0.00 / mixed_ref=1 / me_range=16 / chroma_me=1 / trellis=2 / 8x8dct=0 / cqm=0 / deadzone=21,11 / fast_pskip=1 / chroma_qp_offset=-2 / threads=25 / lookahead_threads=4 / sliced_threads=0 / nr=0 / decimate=1 / interlaced=0 / bluray_compat=0 / constrained_intra=0 / bframes=3 / b_pyramid=2 / b_adapt=1 / b_bias=0 / direct=3 / weightb=1 / open_gop=0 / weightp=2 / keyint=240 / keyint_min=24 / scenecut=40 / intra_refresh=0 / rc_lookahead=50 / rc=abr / mbtree=1 / bitrate=3500 / ratetol=1.0 / qcomp=0.60 / qpmin=0 / qpmax=69 / qpstep=4 / vbv_maxrate=20000 / vbv_bufsize=25000 / nal_hrd=none / filler=0 / ip_ratio=1.40 / aq=1:1.00
    Default                     : Yes
    Forced                      : No
    Color range                 : Limited
    Color primaries             : BT.709
    Transfer characteristics    : BT.709
    Matrix coefficients         : BT.709

    Audio #1
    ID                          : 2
    Format                      : AC-3
    Format/Info                 : Audio Coding 3
    Commercial name             : Dolby Digital
    Codec ID                    : A_AC3
    Duration                    : 1 h 49 min
    Bit rate mode               : Constant
    Bit rate                    : 256 kb/s
    Channel(s)                  : 2 channels
    Channel layout              : L R
    Sampling rate               : 48.0 kHz
    Frame rate                  : 31.250 FPS (1536 SPF)
    Bit depth                   : 16 bits
    Compression mode            : Lossy
    Delay relative to video     : -5 ms
    Stream size                 : 201 MiB (6%)
    Title                       : Español latino [CinemaniaHDD]
    Language                    : Spanish
    Service kind                : Complete Main
    Default                     : Yes
    Forced                      : No

    Audio #2
    ID                          : 3
    Format                      : AC-3
    Format/Info                 : Audio Coding 3
    Commercial name             : Dolby Digital
    Codec ID                    : A_AC3
    Duration                    : 1 h 50 min
    Bit rate mode               : Constant
    Bit rate                    : 448 kb/s
    Channel(s)                  : 6 channels
    Channel layout              : L R C LFE Ls Rs
    Sampling rate               : 48.0 kHz
    Frame rate                  : 31.250 FPS (1536 SPF)
    Bit depth                   : 16 bits
    Compression mode            : Lossy
    Delay relative to video     : -5 ms
    Stream size                 : 353 MiB (11%)
    Title                       : Inglés [CinemaniaHDD]
    Language                    : English
    Service kind                : Complete Main
    Default                     : No
    Forced                      : No

    Text #1
    ID                          : 4
    Format                      : UTF-8
    Codec ID                    : S_TEXT/UTF8
    Codec ID/Info               : UTF-8 Plain Text
    Duration                    : 1 h 44 min
    Bit rate                    : 1 b/s
    Count of elements           : 32
    Stream size                 : 1.41 KiB (0%)
    Title                       : Forzados [CinemaniaHDD]
    Language                    : Spanish
    Default                     : Yes
    Forced                      : Yes

    Text #2
    ID                          : 5
    Format                      : UTF-8
    Codec ID                    : S_TEXT/UTF8
    Codec ID/Info               : UTF-8 Plain Text
    Duration                    : 1 h 44 min
    Bit rate                    : 67 b/s
    Count of elements           : 1446
    Stream size                 : 51.3 KiB (0%)
    Title                       : Español latino [CinemaniaHDD]
    Language                    : Spanish
    Default                     : No
    Forced                      : No

    Menu
    00:00:00.000                : :Chapter 1
    00:02:35.364                : :Chapter 2
    00:11:15.175                : :Chapter 3
    00:18:49.170                : :Chapter 4
    00:29:29.476                : :Chapter 5
    00:36:47.205                : :Chapter 6
    00:44:16.821                : :Chapter 7
    00:57:33.367                : :Chapter 8
    01:10:09.122                : :Chapter 9
    01:20:04.842                : :Chapter 10
    01:33:24.390                : :Chapter 11
    01:44:17.710                : :Chapter 12

     

  • Peso: 3.14 GiB

Sinopsis

Leslie Van Houten, Mary Brunner y Virginia Carlson son tres reclusas que han ingresado en prisión por haber participado en los crímenes de Charles Manson. A pesar de que la condena de estas mujeres era la pena de muerte, cuando esta es revocada, la sentencia pasa a ser un tiempo completo en la cárcel. En medio de este caos, aparece una joven estudiante llamada Karlene Faith, que se da cuenta de que estar tras las rejas no ha hecho otra cosa que aumentar los delirios que Manson había incrustado en sus mentes.

Ficha técnica

Video trailer de la película

Enlaces de descarga

Rip de Bluray

Descargar Charlie Says (2018) 1080p Latino




Aportes de DPeliculasHDmega la pass es:dpeliculashdmega.org Aportes de CinemaniaHD la pass es:cinemaniahdd.com
Guardado en : Crimen , Drama , HD 1080p

Películas relacionadas

descargar Charlie Says (2018) 1080p Latino 1080p 1080p gratis, Charlie Says (2018) 1080p Latino 1080p mega 1 link, Charlie Says (2018) 1080p Latino 1080p pelicula completa, descargar Charlie Says (2018) 1080p Latino 1080p gratis en mega.

Charlie Says (2018) 1080p Latino pelicula full hd, Charlie Says (2018) 1080p Latino mega latino, Charlie Says (2018) 1080p Latino 4k latino, Charlie Says (2018) 1080p Latino pelicula completa, Charlie Says (2018) 1080p Latino descargar gratis, descargar Charlie Says (2018) 1080p Latino pelicula latino, Charlie Says (2018) 1080p Latino 1 link mega, Charlie Says (2018) 1080p Latino 1 link google drive, Charlie Says (2018) 1080p Latino hd 1080p latino.
Comentarios 0