×

¿Problemas para descargar con Mozilla, EDGE? Deshabilita la opción "Abrir vinculos en una pestaña nueva" tal como lo muestra ésta imagen.

Charlie Y La Fabrica De Chocolate (2005) REMUX 1080p Latino

313 vistas

Información de Charlie Y La Fabrica De Chocolate (2005) REMUX 1080p Latino

Datos de la película

  • Calidad: Full 1080p
  • Audio: Se especifica abajo de la Sinopsis
  • Subtitulos: Español Latino PGS - Ingles PGS
  • Resolución: 1920x1080p
  • Formato: MKV
  • Codec: H.264
  • Encoder: CinefiloCool
  • Mediainfo: Clic para Mostrar Datos Ver
  • Charlie Y La Fabrica De Chocolate (2005) REMUX 1080p Latino-CMHDD.mkv
    Format                      : Matroska
    Format version              : Version 4
    File size                   : 16.1 GiB
    Duration                    : 1 h 55 min
    Overall bit rate mode       : Variable
    Overall bit rate            : 20.0 Mb/s
    Movie name                  : Charlie and the Chocolate Factory (2005) CinemaniaHDD.Net
    Encoded date                : UTC 2023-06-17 16:46:23
    Writing application         : mkvmerge v56.1.0 ('My Friend') 64-bit
    Writing library             : libebml v1.4.2 + libmatroska v1.6.4
    Attachments                 : CINEMANIAHD.png

    Video
    ID                          : 1
    Format                      : VC-1
    Format profile              : Advanced@L3
    Codec ID                    : V_MS/VFW/FOURCC / WVC1
    Codec ID/Hint               : Microsoft
    Duration                    : 1 h 55 min
    Bit rate                    : 17.0 Mb/s
    Width                       : 1 920 pixels
    Height                      : 1 080 pixels
    Display aspect ratio        : 16:9
    Frame rate mode             : Constant
    Frame rate                  : 23.976 (24000/1001) FPS
    Color space                 : YUV
    Chroma subsampling          : 4:2:0
    Bit depth                   : 8 bits
    Scan type                   : Progressive
    Compression mode            : Lossy
    Bits/(Pixel*Frame)          : 0.341
    Stream size                 : 13.7 GiB (85%)
    Title                       : REMUX HD1080p [CinemaniaHDD]
    Default                     : Yes
    Forced                      : Yes

    Audio #1
    ID                          : 2
    Format                      : AC-3
    Format/Info                 : Audio Coding 3
    Commercial name             : Dolby Digital
    Codec ID                    : A_AC3
    Duration                    : 1 h 55 min
    Bit rate mode               : Constant
    Bit rate                    : 640 kb/s
    Channel(s)                  : 6 channels
    Channel layout              : L R C LFE Ls Rs
    Sampling rate               : 48.0 kHz
    Frame rate                  : 31.250 FPS (1536 SPF)
    Compression mode            : Lossy
    Stream size                 : 528 MiB (3%)
    Title                       : Español Latino [CinemaniaHDD]
    Language                    : Spanish
    Service kind                : Complete Main
    Default                     : Yes
    Forced                      : Yes

    Audio #2
    ID                          : 3
    Format                      : MLP FBA
    Format/Info                 : Meridian Lossless Packing FBA
    Commercial name             : Dolby TrueHD
    Codec ID                    : A_TRUEHD
    Duration                    : 1 h 55 min
    Bit rate mode               : Variable
    Bit rate                    : 1 675 kb/s
    Maximum bit rate            : 3 069 kb/s
    Channel(s)                  : 6 channels
    Channel layout              : L R C LFE Ls Rs
    Sampling rate               : 48.0 kHz
    Frame rate                  : 1 200.000 FPS (40 SPF)
    Compression mode            : Lossless
    Stream size                 : 1.35 GiB (8%)
    Title                       : Ingles [CinemaniaHDD]
    Language                    : English
    Default                     : No
    Forced                      : No

    Audio #3
    ID                          : 4
    Format                      : AC-3
    Format/Info                 : Audio Coding 3
    Commercial name             : Dolby Digital
    Codec ID                    : A_AC3
    Duration                    : 1 h 55 min
    Bit rate mode               : Constant
    Bit rate                    : 640 kb/s
    Channel(s)                  : 6 channels
    Channel layout              : L R C LFE Ls Rs
    Sampling rate               : 48.0 kHz
    Frame rate                  : 31.250 FPS (1536 SPF)
    Compression mode            : Lossy
    Stream size                 : 528 MiB (3%)
    Title                       : Ingles AC3 [CinemaniaHDD]
    Language                    : English
    Service kind                : Complete Main
    Default                     : No
    Forced                      : No

    Text #1
    ID                          : 5
    Format                      : PGS
    Muxing mode                 : zlib
    Codec ID                    : S_HDMV/PGS
    Codec ID/Info               : Picture based subtitle format used on BDs/HD-DVDs
    Duration                    : 1 h 52 min
    Bit rate                    : 804 b/s
    Count of elements           : 76
    Stream size                 : 663 KiB (0%)
    Title                       : Forzados-PGS [CinemaniaHDD]
    Language                    : Spanish
    Default                     : No
    Forced                      : No

    Text #2
    ID                          : 6
    Format                      : PGS
    Muxing mode                 : zlib
    Codec ID                    : S_HDMV/PGS
    Codec ID/Info               : Picture based subtitle format used on BDs/HD-DVDs
    Duration                    : 1 h 54 min
    Bit rate                    : 28.0 kb/s
    Count of elements           : 2396
    Stream size                 : 22.9 MiB (0%)
    Title                       : Español-PGS [CinemaniaHDD]
    Language                    : Spanish
    Default                     : No
    Forced                      : No

    Text #3
    ID                          : 7
    Format                      : PGS
    Muxing mode                 : zlib
    Codec ID                    : S_HDMV/PGS
    Codec ID/Info               : Picture based subtitle format used on BDs/HD-DVDs
    Duration                    : 1 h 51 min
    Bit rate                    : 31.3 kb/s
    Count of elements           : 2446
    Stream size                 : 24.9 MiB (0%)
    Title                       : Ingles-PGS [CinemaniaHDD]
    Language                    : English
    Default                     : No
    Forced                      : No

    Text #4
    ID                          : 8
    Format                      : UTF-8
    Codec ID                    : S_TEXT/UTF8
    Codec ID/Info               : UTF-8 Plain Text
    Duration                    : 1 h 42 min
    Bit rate                    : 1 b/s
    Count of elements           : 37
    Stream size                 : 953 Bytes (0%)
    Title                       : Forzados-SRT [CinemaniaHDD]
    Language                    : Spanish
    Default                     : Yes
    Forced                      : Yes

    Text #5
    ID                          : 9
    Format                      : UTF-8
    Codec ID                    : S_TEXT/UTF8
    Codec ID/Info               : UTF-8 Plain Text
    Duration                    : 1 h 47 min
    Bit rate                    : 54 b/s
    Count of elements           : 1187
    Stream size                 : 42.5 KiB (0%)
    Title                       : Español-SRT [CinemaniaHDD]
    Language                    : Spanish
    Default                     : No
    Forced                      : No

    Menu
    00:00:00.000                : Candy-Coated Credits
    00:04:14.129                : Years Ago
    00:07:54.766                : Chocolate Palace
    00:09:53.885                : It's a Mystery
    00:13:32.311                : Golden Ticket Maia
    00:16:45.796                : Augustus Gloop and Veruca Salt
    00:19:52.775                : Birthday Boy
    00:22:01.320                : Violet Beauregarde and Mike Teavee
    00:24:49.863                : A Setback and a Fling
    00:27:38.782                : Finding Gold
    00:31:26.760                : Are You a Dummy?
    00:33:04.733                : Really Willy Wonka
    00:38:06.784                : Let's Be Friends
    00:40:33.848                : Everything's Eatable
    00:44:25.872                : Loompaland
    00:48:24.318                : Clog and Song: Augustus Gloop
    00:54:34.480                : Pink Sugar Boat
    00:57:04.004                : Dr. Wilbur Wonka
    00:59:33.570                : Chocolate River Rapids
    01:01:44.743                : Turning Violet
    01:07:40.848                : Song: Violet Beauregarde
    01:10:07.120                : First Candy Flashback
    01:12:07.823                : Squirrels and Bad Nuts
    01:17:23.180                : Song: Veruca Salt
    01:20:19.106                : Glass Elevator Flashback
    01:22:21.728                : Chocolate Transmission
    01:28:12.704                : Song: Mike Teavee
    01:33:22.806                : Up and Out
    01:36:52.557                : Winner's Choice
    01:41:16.028                : Charlie's Advice
    01:44:22.006                : Something Even Better
    01:48:50.524                : End Credits

  • Peso: 16.1 GiB

Sinopsis

Descargar Charlie Y La Fabrica De Chocolate (2005) REMUX 1080p Latino. Charlie Bucket (Freddie Highmore), un niño muy bueno de una familia muy pobre, gana un concurso, junto a otros cuatro niños de diferentes partes del mundo, para disfrutar de una visita durante todo un día a la gigantesca fábrica de chocolate dirigida por el excéntrico Willy Wonka (Johnny Depp) y su equipo de Oompa-Loompas. La fábrica se parece a un mundo fantástico y mágico lleno de diferentes sabores, todos muy dulces.

Audio Español Latino AC3 5.1 Bluray – Ingles THD 5.1 + AC3 5.1 Bluray

Ficha técnica

Video trailer de la película

Enlaces de descarga

Rip de Bluray

Descargar Charlie Y La Fabrica De Chocolate (2005) REMUX 1080p Latino


Aportes de DPeliculasHDmega la pass es:dpeliculashdmega.org Aportes de CinemaniaHD la pass es:cinemaniahdd.com Aportes recientes:cinemaniahdd.net
Guardado en : Aventura , Comedia , Familia , Fantasía , Remux

Películas relacionadas

descargar Charlie Y La Fabrica De Chocolate (2005) REMUX 1080p Latino Full 1080p 1080p gratis, Charlie Y La Fabrica De Chocolate (2005) REMUX 1080p Latino Full 1080p mega 1 link, Charlie Y La Fabrica De Chocolate (2005) REMUX 1080p Latino Full 1080p pelicula completa, descargar Charlie Y La Fabrica De Chocolate (2005) REMUX 1080p Latino Full 1080p gratis en mega.

Charlie Y La Fabrica De Chocolate (2005) REMUX 1080p Latino pelicula full hd, Charlie Y La Fabrica De Chocolate (2005) REMUX 1080p Latino mega latino, Charlie Y La Fabrica De Chocolate (2005) REMUX 1080p Latino 4k latino, Charlie Y La Fabrica De Chocolate (2005) REMUX 1080p Latino pelicula completa, Charlie Y La Fabrica De Chocolate (2005) REMUX 1080p Latino descargar gratis, descargar Charlie Y La Fabrica De Chocolate (2005) REMUX 1080p Latino pelicula latino, Charlie Y La Fabrica De Chocolate (2005) REMUX 1080p Latino 1 link mega, Charlie Y La Fabrica De Chocolate (2005) REMUX 1080p Latino 1 link google drive, Charlie Y La Fabrica De Chocolate (2005) REMUX 1080p Latino hd 1080p latino.
Comentarios 0