×

¿Problemas para descargar con Mozilla, EDGE? Deshabilita la opción "Abrir vinculos en una pestaña nueva" tal como lo muestra ésta imagen.

Caos: El Inicio (2021) HD 1080p Latino

214 vistas

Información de Caos: El Inicio (2021) HD 1080p Latino

Datos de la película

  • Calidad: 1080p
  • Audio: Español Latino AC3 5.1 BLURAY - Ingles AC3 5.1 BLURAY
  • Subtitulos: Español Latino SRT- FORZADOS SRT
  • Resolución: 1920x804p
  • Formato: MKV
  • Codec: H.264
  • Encoder: Melkor
  • Mediainfo: Clic para Mostrar Datos Ver
  • Caos El Inicio (2021) HD 1080p Latino.mkv
    Format                      : Matroska
    Format version              : Version 4
    File size                   : 3.42 GiB
    Duration                    : 1 h 48 min
    Overall bit rate            : 4 497 kb/s
    Movie name                  : Chaos Walking (2021)  CinemaniaHDD.Net
    Encoded date                : UTC 2021-05-20 08:19:29
    Writing application         : mkvmerge v56.1.0 ('My Friend') 64-bit
    Writing library             : libebml v1.4.2 + libmatroska v1.6.4
    Attachments                 : CINEMANIAHD.png

    Video
    ID                          : 1
    Format                      : AVC
    Format/Info                 : Advanced Video Codec
    Format profile              : High@L4.1
    Format settings             : CABAC / 5 Ref Frames
    Format settings, CABAC      : Yes
    Format settings, Reference  : 5 frames
    Codec ID                    : V_MPEG4/ISO/AVC
    Duration                    : 1 h 48 min
    Bit rate                    : 3 500 kb/s
    Width                       : 1 920 pixels
    Height                      : 804 pixels
    Display aspect ratio        : 2.40:1
    Frame rate mode             : Constant
    Frame rate                  : 23.976 (24000/1001) FPS
    Color space                 : YUV
    Chroma subsampling          : 4:2:0
    Bit depth                   : 8 bits
    Scan type                   : Progressive
    Bits/(Pixel*Frame)          : 0.095
    Stream size                 : 2.59 GiB (76%)
    Title                       : HD1080p [CinemaniaHDD]
    Writing library             : x264 core 157 r2935 545de2f
    Encoding settings           : cabac=1 / ref=5 / deblock=1:-1:-1 / analyse=0x3:0x133 / me=umh / subme=9 / psy=1 / psy_rd=1.00:0.15 / mixed_ref=1 / me_range=16 / chroma_me=1 / trellis=2 / 8x8dct=1 / cqm=0 / deadzone=21,11 / fast_pskip=1 / chroma_qp_offset=-3 / threads=24 / lookahead_threads=2 / sliced_threads=0 / nr=0 / decimate=1 / interlaced=0 / bluray_compat=0 / constrained_intra=0 / bframes=3 / b_pyramid=2 / b_adapt=2 / b_bias=0 / direct=3 / weightb=1 / open_gop=0 / weightp=2 / keyint=240 / keyint_min=24 / scenecut=40 / intra_refresh=0 / rc_lookahead=60 / rc=abr / mbtree=1 / bitrate=3500 / ratetol=1.0 / qcomp=0.60 / qpmin=0 / qpmax=69 / qpstep=4 / vbv_maxrate=62500 / vbv_bufsize=78125 / nal_hrd=none / filler=0 / ip_ratio=1.40 / aq=1:1.00
    Default                     : Yes
    Forced                      : Yes
    Color range                 : Limited
    Color primaries             : BT.709
    Transfer characteristics    : BT.709
    Matrix coefficients         : BT.709

    Audio #1
    ID                          : 2
    ID in the original source m : 4354 (0x1102)
    Format                      : AC-3
    Format/Info                 : Audio Coding 3
    Commercial name             : Dolby Digital
    Codec ID                    : A_AC3
    Duration                    : 1 h 48 min
    Bit rate mode               : Constant
    Bit rate                    : 640 kb/s
    Channel(s)                  : 6 channels
    Channel layout              : L R C LFE Ls Rs
    Sampling rate               : 48.0 kHz
    Frame rate                  : 31.250 FPS (1536 SPF)
    Compression mode            : Lossy
    Delay relative to video     : -5 ms
    Stream size                 : 499 MiB (14%)
    Title                       : Español Latino [CinemaniaHDD]
    Language                    : Spanish
    Service kind                : Complete Main
    Default                     : Yes
    Forced                      : Yes
    Original source medium      : Blu-ray

    Audio #2
    ID                          : 3
    Format                      : AC-3
    Format/Info                 : Audio Coding 3
    Commercial name             : Dolby Digital
    Codec ID                    : A_AC3
    Duration                    : 1 h 48 min
    Bit rate mode               : Constant
    Bit rate                    : 448 kb/s
    Channel(s)                  : 6 channels
    Channel layout              : L R C LFE Ls Rs
    Sampling rate               : 48.0 kHz
    Frame rate                  : 31.250 FPS (1536 SPF)
    Compression mode            : Lossy
    Delay relative to video     : -5 ms
    Stream size                 : 349 MiB (10%)
    Title                       : Ingles [CinemaniaHDD]
    Language                    : English
    Service kind                : Complete Main
    Default                     : No
    Forced                      : No

    Text #1
    ID                          : 4
    Format                      : UTF-8
    Codec ID                    : S_TEXT/UTF8
    Codec ID/Info               : UTF-8 Plain Text
    Duration                    : 1 h 38 min
    Bit rate                    : 0 b/s
    Count of elements           : 11
    Stream size                 : 343 Bytes (0%)
    Title                       : Forzados-SRT [CinemaniaHDD]
    Language                    : Spanish
    Default                     : Yes
    Forced                      : Yes

    Text #2
    ID                          : 5
    Format                      : UTF-8
    Codec ID                    : S_TEXT/UTF8
    Codec ID/Info               : UTF-8 Plain Text
    Duration                    : 1 h 41 min
    Bit rate                    : 64 b/s
    Count of elements           : 1509
    Stream size                 : 48.2 KiB (0%)
    Title                       : Español-SRT [CinemaniaHDD]
    Language                    : Spanish
    Default                     : No
    Forced                      : No

    Text #3
    ID                          : 6
    Format                      : UTF-8
    Codec ID                    : S_TEXT/UTF8
    Codec ID/Info               : UTF-8 Plain Text
    Duration                    : 1 h 37 min
    Bit rate                    : 53 b/s
    Count of elements           : 1453
    Stream size                 : 38.1 KiB (0%)
    Title                       : Ingles-SRT [CinemaniaHDD]
    Language                    : English
    Default                     : No
    Forced                      : No

    Menu
    00:00:00.000                : :Chapter 01
    00:05:16.858                : :Chapter 02
    00:13:20.550                : :Chapter 03
    00:20:18.634                : :Chapter 04
    00:27:39.867                : :Chapter 05
    00:35:54.110                : :Chapter 06
    00:39:41.254                : :Chapter 07
    00:45:45.409                : :Chapter 08
    00:51:22.204                : :Chapter 09
    00:56:34.558                : :Chapter 10
    01:01:40.363                : :Chapter 11
    01:07:13.446                : :Chapter 12
    01:15:41.996                : :Chapter 13
    01:22:30.821                : :Chapter 14
    01:30:43.938                : :Chapter 15
    01:36:45.800                : :Chapter 16

  • Peso: 3.42 GiB

Sinopsis

Descargar Caos: El Inicio (2021) HD 1080p Latino. Todd Hewitt es el último chico de Prentisstown, una pequeña comunidad cuya peculiaridad (aparte del hecho de que no hay mujeres) es que todos escuchan los pensamientos ajenos, lo que es definido como Ruido, un ruido que nunca cesa. Todd está contento porque sólo falta un mes para que sea su decimotercer cumpleaños y por fin, se convierta en hombre. Pero entonces, en uno de sus paseos por el bosque con su fiel perro, encuentra algo inesperado que cambiará su mundo para siempre: el silencio. O como lo define Todd: un agujero en el ruido.

Ficha técnica

Video trailer de la película

Enlaces de descarga

Rip de Bluray

Descargar Caos: El Inicio (2021) HD 1080p Latino




Aportes de DPeliculasHDmega la pass es:dpeliculashdmega.org Aportes de CinemaniaHD la pass es:cinemaniahdd.com

Películas relacionadas

  • El Perfumista (2022) NF WEB-DL 1080p Latino

    El Perfumista (2022) NF WEB-DL 1080p Latino

    2022
    El Perfumista (2022) NF WEB-DL 1080p Latino

    1h 36m 2022

    Descargar El Perfumista (2022) NF WEB-DL 1080p Latino. Para recuperar su sentido del olfato y el afecto...

    Director: Nils Willbrandt

    Género: Crimen

    Actores: Sólveig Arnarsdóttir

  • La familia Monster (2022) HD 1080p Latino

    La familia Monster (2022) HD 1080p Latino

    2022
    La familia Monster (2022) HD 1080p Latino

    1h 49m 2022

    Descargar La familia Monster (2022) HD 1080p Latino. Reboot de "The Munsters", que sigue las desventuras...

    Director: Rob Zombie

    Género: Comedia

    Actores: Tomas Boykin

  • The Infernal Machine (2022) WEB-DL 1080p Latino

    The Infernal Machine (2022) WEB-DL 1080p Latino

    2022
    The Infernal Machine (2022) WEB-DL 1080p Latino

    1h 47m 2022

    Bruce Cogburn, un autor controversial y solitario, debe salir de su escondite cuando comienza...

    Director: Andrew Hunt

    Género: Suspenso

    Actores: Rocco Salata

descargar Caos: El Inicio (2021) HD 1080p Latino 1080p 1080p gratis, Caos: El Inicio (2021) HD 1080p Latino 1080p mega 1 link, Caos: El Inicio (2021) HD 1080p Latino 1080p pelicula completa, descargar Caos: El Inicio (2021) HD 1080p Latino 1080p gratis en mega.

Caos: El Inicio (2021) HD 1080p Latino pelicula full hd, Caos: El Inicio (2021) HD 1080p Latino mega latino, Caos: El Inicio (2021) HD 1080p Latino 4k latino, Caos: El Inicio (2021) HD 1080p Latino pelicula completa, Caos: El Inicio (2021) HD 1080p Latino descargar gratis, descargar Caos: El Inicio (2021) HD 1080p Latino pelicula latino, Caos: El Inicio (2021) HD 1080p Latino 1 link mega, Caos: El Inicio (2021) HD 1080p Latino 1 link google drive, Caos: El Inicio (2021) HD 1080p Latino hd 1080p latino.
Comentarios 0