×

¿Problemas para descargar con Mozilla, EDGE? Deshabilita la opción "Abrir vinculos en una pestaña nueva" tal como lo muestra ésta imagen.

Cazando a Ava Bravo (2022) AMZN WEB-DL 1080p Latino

352 vistas

Información de Cazando a Ava Bravo (2022) AMZN WEB-DL 1080p Latino

Datos de la película

  • Calidad: WEBDL
  • Audio: Español Latino AC3 5.1 WEB-DL - Ingles AC3 5.1 WEB-DL
  • Subtitulos: Español Latino SRT- FORZADOS SRT
  • Resolución: 1920x800p
  • Formato: MKV
  • Codec: H.264
  • Encoder: Melkor
  • Mediainfo: Clic para Mostrar Datos Ver
  • Cazando a Ava Bravo (2022) AMZN WebDL 1080p Latino.mkv
    Format                      : Matroska
    Format version              : Version 4
    File size                   : 4.16 GiB
    Duration                    : 1 h 18 min
    Overall bit rate            : 7 555 kb/s
    Movie name                  : Hunting Ava Bravo (2022) CinemaniaHDD.Net
    Encoded date                : UTC 2022-08-23 08:29:31
    Writing application         : mkvmerge v56.1.0 ('My Friend') 64-bit
    Writing library             : libebml v1.4.2 + libmatroska v1.6.4
    Attachments                 : CINEMANIAHD.png

    Video
    ID                          : 1
    Format                      : AVC
    Format/Info                 : Advanced Video Codec
    Format profile              : High@L4
    Format settings             : CABAC / 4 Ref Frames
    Format settings, CABAC      : Yes
    Format settings, Reference  : 4 frames
    Codec ID                    : V_MPEG4/ISO/AVC
    Duration                    : 1 h 18 min
    Bit rate mode               : Constant
    Bit rate                    : 5 632 kb/s
    Nominal bit rate            : 10 000 kb/s
    Width                       : 1 920 pixels
    Height                      : 800 pixels
    Display aspect ratio        : 2.40:1
    Frame rate mode             : Constant
    Frame rate                  : 23.976 (24000/1001) FPS
    Color space                 : YUV
    Chroma subsampling          : 4:2:0
    Bit depth                   : 8 bits
    Scan type                   : Progressive
    Bits/(Pixel*Frame)          : 0.153
    Stream size                 : 3.10 GiB (75%)
    Title                       : Web HD1080p [CinemaniaHDD]
    Language                    : English
    Default                     : Yes
    Forced                      : Yes
    Color range                 : Limited
    Color primaries             : BT.709
    Transfer characteristics    : BT.709
    Matrix coefficients         : BT.709

    Audio #1
    ID                          : 2
    Format                      : AC-3
    Format/Info                 : Audio Coding 3
    Commercial name             : Dolby Digital
    Codec ID                    : A_AC3
    Duration                    : 1 h 18 min
    Bit rate mode               : Constant
    Bit rate                    : 640 kb/s
    Channel(s)                  : 6 channels
    Channel layout              : L R C LFE Ls Rs
    Sampling rate               : 48.0 kHz
    Frame rate                  : 31.250 FPS (1536 SPF)
    Compression mode            : Lossy
    Stream size                 : 361 MiB (8%)
    Title                       : Español Latino AC3 [CinemaniaHDD]
    Language                    : Spanish
    Service kind                : Complete Main
    Default                     : Yes
    Forced                      : Yes

    Audio #2
    ID                          : 3
    Format                      : E-AC-3
    Format/Info                 : Enhanced AC-3
    Commercial name             : Dolby Digital Plus
    Codec ID                    : A_EAC3
    Duration                    : 1 h 18 min
    Bit rate mode               : Constant
    Bit rate                    : 640 kb/s
    Channel(s)                  : 6 channels
    Channel layout              : L R C LFE Ls Rs
    Sampling rate               : 48.0 kHz
    Frame rate                  : 31.250 FPS (1536 SPF)
    Compression mode            : Lossy
    Stream size                 : 361 MiB (8%)
    Title                       : Español Latino EAC3 [CinemaniaHDD]
    Language                    : Spanish
    Service kind                : Complete Main
    Default                     : No
    Forced                      : No

    Audio #3
    ID                          : 4
    Format                      : E-AC-3
    Format/Info                 : Enhanced AC-3
    Commercial name             : Dolby Digital Plus
    Codec ID                    : A_EAC3
    Duration                    : 1 h 18 min
    Bit rate mode               : Constant
    Bit rate                    : 640 kb/s
    Channel(s)                  : 6 channels
    Channel layout              : L R C LFE Ls Rs
    Sampling rate               : 48.0 kHz
    Frame rate                  : 31.250 FPS (1536 SPF)
    Compression mode            : Lossy
    Stream size                 : 361 MiB (8%)
    Title                       : Ingles [CinemaniaHDD]
    Language                    : English
    Service kind                : Complete Main
    Default                     : No
    Forced                      : No

    Text #1
    ID                          : 5
    Format                      : UTF-8
    Codec ID                    : S_TEXT/UTF8
    Codec ID/Info               : UTF-8 Plain Text
    Duration                    : 1 h 15 min
    Bit rate                    : 1 b/s
    Count of elements           : 23
    Stream size                 : 1.05 KiB (0%)
    Title                       : Forzados-SRT [CinemaniaHDD]
    Language                    : Spanish
    Default                     : Yes
    Forced                      : Yes

    Text #2
    ID                          : 6
    Format                      : UTF-8
    Codec ID                    : S_TEXT/UTF8
    Codec ID/Info               : UTF-8 Plain Text
    Duration                    : 1 h 15 min
    Bit rate                    : 37 b/s
    Count of elements           : 715
    Stream size                 : 20.5 KiB (0%)
    Title                       : Español-SRT [CinemaniaHDD]
    Language                    : Spanish
    Default                     : No
    Forced                      : No

    Text #3
    ID                          : 7
    Format                      : UTF-8
    Codec ID                    : S_TEXT/UTF8
    Codec ID/Info               : UTF-8 Plain Text
    Duration                    : 1 h 15 min
    Bit rate                    : 41 b/s
    Count of elements           : 870
    Stream size                 : 23.2 KiB (0%)
    Title                       : Ingles-SRT [CinemaniaHDD]
    Language                    : English
    Default                     : No
    Forced                      : No

  • Peso: 4.16 GiB

Sinopsis

Descargar Cazando a Ava Bravo (2022) AMZN WEB-DL 1080p Latino. El deportista multimillonario Buddy King se relaja cazando cautivos humanos en su remota propiedad en las montañas. Pero su última víctima, Ava Bravo, no es un blanco fácil.

Ficha técnica

Video trailer de la película

Enlaces de descarga

Rip de Bluray

Descargar Cazando a Ava Bravo (2022) AMZN WEB-DL 1080p Latino




Aportes de DPeliculasHDmega la pass es:dpeliculashdmega.org Aportes de CinemaniaHD la pass es:cinemaniahdd.com Aportes recientes:cinemaniahdd.net
Guardado en : Acción , Suspenso , Terror

Películas relacionadas

  • Los infalibles (2024) AMZN WEB-DL 1080p Latino

    Los infalibles (2024) AMZN WEB-DL 1080p Latino

    2024
    Los infalibles (2024) AMZN WEB-DL 1080p Latino

    1h 39m 2024

    Cuando un grupo de ladrones provoca el caos en París y ridiculiza a la policía, el Ministro del Interior...

    Director: Frédéric Forestier

    Género: Acción

    Actores: Vincent Rottiers

  • El Ministerio de la Guerra (2024) HD 1080p Latino

    El Ministerio de la Guerra (2024) HD 1080p Latino

    2024
    El Ministerio de la Guerra (2024) HD 1080p Latino

    2h 0m 2024

    Descargar El Ministerio de la Guerra (2024) HD 1080p Latino.  El ejército británico recluta a un pequeño...

    Director: Guy Ritchie

    Género: Acción

    Actores: Til Schweiger

  • V for Vendetta (2005) REMUX 4K HDR Latino – CMHDD

    V for Vendetta (2005) REMUX 4K HDR Latino – CMHDD

    2006
    V for Vendetta (2005) REMUX 4K HDR Latino – CMHDD

    2h 12m 2006

    En un futuro no muy lejano, Gran Bretaña es un país totalitario dirigido con mano de hierro por un...

    Director: Tobias Asam

    Género: Acción

    Actores: Wolfgang Stegemann

descargar Cazando a Ava Bravo (2022) AMZN WEB-DL 1080p Latino WEBDL 1080p gratis, Cazando a Ava Bravo (2022) AMZN WEB-DL 1080p Latino WEBDL mega 1 link, Cazando a Ava Bravo (2022) AMZN WEB-DL 1080p Latino WEBDL pelicula completa, descargar Cazando a Ava Bravo (2022) AMZN WEB-DL 1080p Latino WEBDL gratis en mega.

Cazando a Ava Bravo (2022) AMZN WEB-DL 1080p Latino pelicula full hd, Cazando a Ava Bravo (2022) AMZN WEB-DL 1080p Latino mega latino, Cazando a Ava Bravo (2022) AMZN WEB-DL 1080p Latino 4k latino, Cazando a Ava Bravo (2022) AMZN WEB-DL 1080p Latino pelicula completa, Cazando a Ava Bravo (2022) AMZN WEB-DL 1080p Latino descargar gratis, descargar Cazando a Ava Bravo (2022) AMZN WEB-DL 1080p Latino pelicula latino, Cazando a Ava Bravo (2022) AMZN WEB-DL 1080p Latino 1 link mega, Cazando a Ava Bravo (2022) AMZN WEB-DL 1080p Latino 1 link google drive, Cazando a Ava Bravo (2022) AMZN WEB-DL 1080p Latino hd 1080p latino.
Comentarios 0