×

¿Problemas para descargar con Mozilla, EDGE? Deshabilita la opción "Abrir vinculos en una pestaña nueva" tal como lo muestra ésta imagen.

Cat’s Eye (1985) REMUX 1080p Latino – CMHDD

145 vistas

Información de Cat’s Eye (1985) REMUX 1080p Latino – CMHDD

Datos de la película

  • Calidad: Full 1080p
  • Audio: Se especifica abajo de la Sinopsis
  • Subtitulos: Español Latino PGS
  • Resolución: 1920x1080p
  • Formato: MKV
  • Codec: H.264
  • Encoder: Dracarys
  • Mediainfo: Clic para Mostrar Datos Ver
  • Format                      : Matroska
    Format version              : Version 4
    File size                   : 24.4 GiB
    Duration                    : 1 h 34 min
    Overall bit rate mode       : Variable
    Overall bit rate            : 37.0 Mb/s
    Movie name                  : Cat's Eye (1985) REMUX 1080p Latino - CMHDD
    Encoded date                : UTC 2023-09-01 02:47:13
    Writing application         : mkvmerge v47.0.0 ('Black Flag') 64-bit
    Writing library             : libebml v1.3.10 + libmatroska v1.5.2
    Cover                       : Yes
    Attachments                 : cover.jpg

    Video
    ID                          : 1
    ID in the original source m : 4113 (0x1011)
    Format                      : AVC
    Format/Info                 : Advanced Video Codec
    Format profile              : High@L4.1
    Format settings             : CABAC / 2 Ref Frames
    Format settings, CABAC      : Yes
    Format settings, Reference  : 2 frames
    Format settings, GOP        : M=1, N=10
    Codec ID                    : V_MPEG4/ISO/AVC
    Duration                    : 1 h 34 min
    Bit rate mode               : Variable
    Bit rate                    : 34.8 Mb/s
    Width                       : 1 920 pixels
    Height                      : 1 080 pixels
    Display aspect ratio        : 16:9
    Frame rate mode             : Constant
    Frame rate                  : 23.976 (24000/1001) FPS
    Color space                 : YUV
    Chroma subsampling          : 4:2:0
    Bit depth                   : 8 bits
    Scan type                   : Progressive
    Bits/(Pixel*Frame)          : 0.701
    Stream size                 : 23.0 GiB (94%)
    Default                     : Yes
    Forced                      : No
    Original source medium      : Blu-ray

    Audio #1
    ID                          : 2
    ID in the original source m : 4352 (0x1100)
    Format                      : DTS XLL
    Format/Info                 : Digital Theater Systems
    Commercial name             : DTS-HD Master Audio
    Codec ID                    : A_DTS
    Duration                    : 1 h 34 min
    Bit rate mode               : Variable
    Bit rate                    : 1 995 kb/s
    Channel(s)                  : 2 channels
    Sampling rate               : 48.0 kHz
    Frame rate                  : 93.750 FPS (512 SPF)
    Bit depth                   : 24 bits
    Compression mode            : Lossless
    Stream size                 : 1.31 GiB (5%)
    Language                    : English
    Default                     : No
    Forced                      : No
    Original source medium      : Blu-ray

    Audio #2
    ID                          : 3
    ID in the original source m : 4353 (0x1101)
    Format                      : AC-3
    Format/Info                 : Audio Coding 3
    Commercial name             : Dolby Digital
    Format settings             : Dolby Surround
    Codec ID                    : A_AC3
    Duration                    : 1 h 34 min
    Bit rate mode               : Constant
    Bit rate                    : 192 kb/s
    Channel(s)                  : 2 channels
    Channel layout              : L R
    Sampling rate               : 48.0 kHz
    Frame rate                  : 31.250 FPS (1536 SPF)
    Compression mode            : Lossy
    Stream size                 : 130 MiB (1%)
    Language                    : Spanish
    Service kind                : Complete Main
    Default                     : Yes
    Forced                      : No
    Original source medium      : Blu-ray

    Text
    ID                          : 4
    ID in the original source m : 4610 (0x1202)
    Format                      : PGS
    Muxing mode                 : zlib
    Codec ID                    : S_HDMV/PGS
    Codec ID/Info               : Picture based subtitle format used on BDs/HD-DVDs
    Duration                    : 1 h 33 min
    Bit rate                    : 17.8 kb/s
    Frame rate                  : 0.231 FPS
    Count of elements           : 1298
    Stream size                 : 11.9 MiB (0%)
    Language                    : Spanish
    Default                     : No
    Forced                      : No
    Original source medium      : Blu-ray

    Menu
    00:00:00.000                : en:Capítulo 01
    00:03:13.943                : en:Capítulo 02
    00:07:28.489                : en:Capítulo 03
    00:10:12.862                : en:Capítulo 04
    00:12:23.409                : en:Capítulo 05
    00:14:48.637                : en:Capítulo 06
    00:18:34.780                : en:Capítulo 07
    00:23:02.172                : en:Capítulo 08
    00:25:40.080                : en:Capítulo 09
    00:29:36.274                : en:Capítulo 10
    00:32:27.195                : en:Capítulo 11
    00:35:01.516                : en:Capítulo 12
    00:39:50.596                : en:Capítulo 13
    00:43:45.247                : en:Capítulo 14
    00:47:22.548                : en:Capítulo 15
    00:50:48.920                : en:Capítulo 16
    00:53:40.258                : en:Capítulo 17
    00:56:24.547                : en:Capítulo 18
    01:00:58.112                : en:Capítulo 19
    01:04:02.380                : en:Capítulo 20
    01:06:51.048                : en:Capítulo 21
    01:09:52.813                : en:Capítulo 22
    01:14:51.111                : en:Capítulo 23
    01:17:55.837                : en:Capítulo 24
    01:20:35.205                : en:Capítulo 25
    01:23:02.894                : en:Capítulo 26
    01:27:07.722                : en:Capítulo 27
    01:31:38.493                : en:Capítulo 28

  • Peso: 24.4 GiB

Sinopsis

Tres diferentes historias escritas por Stephen King y entrelazadas por un gato. La primera relata la historia de un hombre que intenta dejar de fumar; la segunda gira en torno a una peligrosa apuesta; y la última, el único que puede salvar la vida de una niña de un duende diabólico es el mismo gato.

 

Latino: AC3 2.0  –  Inglés: DTS 2.0

Ficha técnica

  • Titulo original: Cat's Eye
  • Fecha de lanzamiento: 12-04-1985 (Netherlands, United States of America)
  • Director: Lewis Teague
  • Género: Suspenso, Terror

Video trailer de la película

Enlaces de descarga

Rip de Bluray

Descargar Cat’s Eye (1985) REMUX 1080p Latino – CMHDD


Aportes de DPeliculasHDmega la pass es:dpeliculashdmega.org Aportes de CinemaniaHD la pass es:cinemaniahdd.com Aportes recientes:cinemaniahdd.net
Guardado en : Suspenso , Terror

Películas relacionadas

  • Godzilla vs. Kong (2021) REMUX 4K HDR Latino – CMHDD

    Godzilla vs. Kong (2021) REMUX 4K HDR Latino – CMHDD

    2021
    Godzilla vs. Kong (2021) REMUX 4K HDR Latino – CMHDD

    1h 54m 2021

    Godzilla y Kong, dos de las fuerzas más poderosas de un planeta habitado por todo tipo de aterradoras...

    Director: Thomas Robinson Harper

    Género: Acción

    Actores: Victoria Liu

  • Lisa Frankenstein (2024) HD 1080p Latino

    Lisa Frankenstein (2024) HD 1080p Latino

    2024
    Lisa Frankenstein (2024) HD 1080p Latino

    1h 42m 2024

    Descargar Lisa Frankenstein (2024) HD 1080p Latino. En 1989, una impopular chica de secundaria llamada...

    Director: Zelda Williams

    Género: Comedia

    Actores: Wendy Miklovic

  • Lisa Frankenstein (2024) PLACEBO Full HD 1080p Latino

    Lisa Frankenstein (2024) PLACEBO Full HD 1080p Latino

    2024
    Lisa Frankenstein (2024) PLACEBO Full HD 1080p Latino

    1h 42m 2024

    Descargar Lisa Frankenstein (2024) PLACEBO Full HD 1080p Latino. En 1989, una impopular chica de secundaria...

    Director: Zelda Williams

    Género: Comedia

    Actores: Wendy Miklovic

  • Lisa Frankenstein (2024) REMUX 1080p Latino

    Lisa Frankenstein (2024) REMUX 1080p Latino

    2024
    Lisa Frankenstein (2024) REMUX 1080p Latino

    1h 42m 2024

    Descargar Lisa Frankenstein (2024) REMUX 1080p Latino. En 1989, una impopular chica de secundaria llamada...

    Director: Zelda Williams

    Género: Comedia

    Actores: Wendy Miklovic

  • Aguas siniestras (2024) HD 1080p Latino

    Aguas siniestras (2024) HD 1080p Latino

    2024
    Aguas siniestras (2024) HD 1080p Latino

    1h 56m 2024

    Descargar Aguas siniestras (2024) HD 1080p Latino. Ray Waller, una estrella del béisbol obligada a retirarse...

    Director: Phil DeSanti

    Género: HD 1080p

    Actores: Wyatt Russell

descargar Cat’s Eye (1985) REMUX 1080p Latino – CMHDD Full 1080p 1080p gratis, Cat’s Eye (1985) REMUX 1080p Latino – CMHDD Full 1080p mega 1 link, Cat’s Eye (1985) REMUX 1080p Latino – CMHDD Full 1080p pelicula completa, descargar Cat’s Eye (1985) REMUX 1080p Latino – CMHDD Full 1080p gratis en mega.

Cat’s Eye (1985) REMUX 1080p Latino – CMHDD pelicula full hd, Cat’s Eye (1985) REMUX 1080p Latino – CMHDD mega latino, Cat’s Eye (1985) REMUX 1080p Latino – CMHDD 4k latino, Cat’s Eye (1985) REMUX 1080p Latino – CMHDD pelicula completa, Cat’s Eye (1985) REMUX 1080p Latino – CMHDD descargar gratis, descargar Cat’s Eye (1985) REMUX 1080p Latino – CMHDD pelicula latino, Cat’s Eye (1985) REMUX 1080p Latino – CMHDD 1 link mega, Cat’s Eye (1985) REMUX 1080p Latino – CMHDD 1 link google drive, Cat’s Eye (1985) REMUX 1080p Latino – CMHDD hd 1080p latino.
Comentarios 0