Cats (2019) REMUX 1080p Latino

154 vistas
1 estrella2 estrellas3 estrellas4 estrellas5 estrellas (Ninguna valoración todavía)
Cargando…

Información de Cats (2019) REMUX 1080p Latino

Datos de la película

  • Calidad: Full 1080p
  • Audio: Se especifica abajo de la Sinopsis
  • Subtitulos: Español Latino PGS - Ingles PGS
  • Resolución: 1920x1080p
  • Formato: MKV
  • Codec: H.264
  • Encoder: Melkor
  • Mediainfo: Clic para Mostrar Datos Ver
  • Cats (2019) REMUX 1080p Latino.mkv
    Format                      : Matroska
    Format version              : Version 4
    File size                   : 23.8 GiB
    Duration                    : 1 h 49 min
    Overall bit rate mode       : Variable
    Overall bit rate            : 31.0 Mb/s
    Movie name                  : Cats (2019) CinemaniaHDD.Net
    Encoded date                : UTC 2020-03-29 05:04:55
    Writing application         : mkvmerge v42.0.0 ('Overtime') 64-bit
    Writing library             : libebml v1.3.10 + libmatroska v1.5.2
    Attachments                 : CINEMANIAHD.png

    Video
    ID                          : 1
    Format                      : AVC
    Format/Info                 : Advanced Video Codec
    Format profile              : High@L4.1
    Format settings             : CABAC / 2 Ref Frames
    Format settings, CABAC      : Yes
    Format settings, ReFrames   : 2 frames
    Codec ID                    : V_MPEG4/ISO/AVC
    Duration                    : 1 h 49 min
    Bit rate mode               : Variable
    Bit rate                    : 25.9 Mb/s
    Width                       : 1 920 pixels
    Height                      : 1 080 pixels
    Display aspect ratio        : 16:9
    Frame rate mode             : Constant
    Frame rate                  : 23.976 (24000/1001) FPS
    Color space                 : YUV
    Chroma subsampling          : 4:2:0
    Bit depth                   : 8 bits
    Scan type                   : Progressive
    Bits/(Pixel*Frame)          : 0.521
    Stream size                 : 19.9 GiB (83%)
    Title                       : REMUX 1080p [CinemaniaHDD]
    Default                     : Yes
    Forced                      : Yes

    Audio #1
    ID                          : 2
    Format                      : DTS
    Format/Info                 : Digital Theater Systems
    Codec ID                    : A_DTS
    Duration                    : 1 h 49 min
    Bit rate mode               : Constant
    Bit rate                    : 768 kb/s
    Channel(s)                  : 6 channels
    Channel layout              : C L R Ls Rs LFE
    Sampling rate               : 48.0 kHz
    Frame rate                  : 93.750 FPS (512 SPF)
    Bit depth                   : 24 bits
    Compression mode            : Lossy
    Stream size                 : 604 MiB (2%)
    Title                       : Español Latino [CinemaniaHDD]
    Language                    : Spanish
    Default                     : Yes
    Forced                      : Yes

    Audio #2
    ID                          : 3
    Format                      : MLP FBA 16-ch
    Format/Info                 : Meridian Lossless Packing FBA with 16-channel presentation
    Commercial name             : Dolby TrueHD with Dolby Atmos
    Codec ID                    : A_TRUEHD
    Duration                    : 1 h 49 min
    Bit rate mode               : Variable
    Bit rate                    : 3 169 kb/s
    Maximum bit rate            : 5 103 kb/s
    Channel(s)                  : 8 channels
    Channel layout              : L R C LFE Ls Rs Lb Rb
    Sampling rate               : 48.0 kHz
    Frame rate                  : 1 200.000 FPS (40 SPF)
    Compression mode            : Lossless
    Stream size                 : 2.43 GiB (10%)
    Title                       : Ingles [CinemaniaHDD]
    Language                    : English
    Default                     : No
    Forced                      : No
    Number of dynamic objects   : 11
    Bed channel count           : 1 channel
    Bed channel configuration   : LFE

    Audio #3
    ID                          : 4
    Format                      : AC-3
    Format/Info                 : Audio Coding 3
    Commercial name             : Dolby Digital
    Codec ID                    : A_AC3
    Duration                    : 1 h 49 min
    Bit rate mode               : Constant
    Bit rate                    : 640 kb/s
    Channel(s)                  : 6 channels
    Channel layout              : L R C LFE Ls Rs
    Sampling rate               : 48.0 kHz
    Frame rate                  : 31.250 FPS (1536 SPF)
    Bit depth                   : 16 bits
    Compression mode            : Lossy
    Stream size                 : 503 MiB (2%)
    Title                       : Español Latino [CinemaniaHDD]
    Language                    : Spanish
    Service kind                : Complete Main
    Default                     : No
    Forced                      : No

    Audio #4
    ID                          : 5
    Format                      : AC-3
    Format/Info                 : Audio Coding 3
    Commercial name             : Dolby Digital
    Codec ID                    : A_AC3
    Duration                    : 1 h 49 min
    Bit rate mode               : Constant
    Bit rate                    : 448 kb/s
    Channel(s)                  : 6 channels
    Channel layout              : L R C LFE Ls Rs
    Sampling rate               : 48.0 kHz
    Frame rate                  : 31.250 FPS (1536 SPF)
    Bit depth                   : 16 bits
    Compression mode            : Lossy
    Stream size                 : 352 MiB (1%)
    Title                       : Ingles [CinemaniaHDD]
    Language                    : English
    Service kind                : Complete Main
    Default                     : No
    Forced                      : No

    Text #1
    ID                          : 6
    Format                      : PGS
    Muxing mode                 : zlib
    Codec ID                    : S_HDMV/PGS
    Codec ID/Info               : Picture based subtitle format used on BDs/HD-DVDs
    Duration                    : 1 h 47 min
    Bit rate                    : 21.8 kb/s
    Count of elements           : 1680
    Stream size                 : 16.7 MiB (0%)
    Title                       : Forzados-PGS [CinemaniaHDD]
    Language                    : Spanish
    Default                     : Yes
    Forced                      : Yes

    Text #2
    ID                          : 7
    Format                      : PGS
    Muxing mode                 : zlib
    Codec ID                    : S_HDMV/PGS
    Codec ID/Info               : Picture based subtitle format used on BDs/HD-DVDs
    Duration                    : 1 h 48 min
    Bit rate                    : 27.2 kb/s
    Count of elements           : 2202
    Stream size                 : 21.2 MiB (0%)
    Title                       : Español-PGS [CinemaniaHDD]
    Language                    : Spanish
    Default                     : No
    Forced                      : No

    Text #3
    ID                          : 8
    Format                      : PGS
    Muxing mode                 : zlib
    Codec ID                    : S_HDMV/PGS
    Codec ID/Info               : Picture based subtitle format used on BDs/HD-DVDs
    Duration                    : 1 h 46 min
    Bit rate                    : 37.6 kb/s
    Count of elements           : 2554
    Stream size                 : 28.6 MiB (0%)
    Title                       : English Ingles-PGS [CinemaniaHDD]
    Language                    : English
    Default                     : No
    Forced                      : No

    Text #4
    ID                          : 9
    Format                      : UTF-8
    Codec ID                    : S_TEXT/UTF8
    Codec ID/Info               : UTF-8 Plain Text
    Duration                    : 1 h 47 min
    Bit rate                    : 37 b/s
    Count of elements           : 840
    Stream size                 : 29.4 KiB (0%)
    Title                       : Forzados-SRT [CinemaniaHDD]
    Language                    : Spanish
    Default                     : No
    Forced                      : No

    Text #5
    ID                          : 10
    Format                      : UTF-8
    Codec ID                    : S_TEXT/UTF8
    Codec ID/Info               : UTF-8 Plain Text
    Duration                    : 1 h 39 min
    Bit rate                    : 48 b/s
    Count of elements           : 1094
    Stream size                 : 35.7 KiB (0%)
    Title                       : Español-SRT [CinemaniaHDD]
    Language                    : Spanish
    Default                     : No
    Forced                      : No

    Menu
    00:00:00.000                : en:Chapter 01
    00:07:44.464                : en:Chapter 02
    00:11:33.901                : en:Chapter 03
    00:13:32.061                : en:Chapter 04
    00:18:05.918                : en:Chapter 05
    00:23:01.838                : en:Chapter 06
    00:26:31.590                : en:Chapter 07
    00:32:34.285                : en:Chapter 08
    00:39:38.959                : en:Chapter 09
    00:45:09.331                : en:Chapter 10
    00:50:32.821                : en:Chapter 11
    00:58:08.359                : en:Chapter 12
    01:04:10.263                : en:Chapter 13
    01:09:11.147                : en:Chapter 14
    01:14:19.705                : en:Chapter 15
    01:16:02.349                : en:Chapter 16
    01:25:08.144                : en:Chapter 17
    01:32:09.857                : en:Chapter 18
    01:36:56.644                : en:Chapter 19
    01:41:21.492                : en:Chapter 20

  • Peso: 23.8 GiB

Sinopsis

Descargar Cats (2019) REMUX 1080p Latino. En el basurero de los gatos Jélicos, una tribu de gatos deberá decidir como cada año cuál ascenderá a una nueva vida jelical. Allí conoceremos a la gata blanca Victoria (Francesca Hayward), a Old Deuteronomy (Judi Dench) que es quien decide qué gato será el elegido, además de al misterioso Mr. Mistoffelees (Laurie Davidson), al rockero Rum Tum Tugger (Jason Derulo), al refinado Bustopher Jones (James Corden), junto con Grizabella (Jennifer Hudson), Macavity (Idris Elba), Jennyanydots (Rebel Wilson), Gus (Ian McKellen) y Bombalurina (Taylor Swift). Esta película es la adaptación del famoso musical de Broadway Cats basado en la obra de Andrew Lloyd Webber, inspirada a su vez en una colección de poemas de T. S. Eliot.

Audio Español Latino DTS 5.1 + AC3 5.1 Bluray – Ingles True-HD 7.1 + AC3 5.1 Bluray

Ficha técnica

  • Titulo original: Cats
  • Fecha de lanzamiento: 19-12-2019 (United Kingdom, United States of America)
  • Director: Tom Hooper
  • Género: Comedia, Drama, Fantasía, Remux
  • Puntuación: 0.0 0 votos
  • Duración:
    1h 51m

Video trailer de la película

Enlaces de descarga

Rip de Bluray

Descargar Cats (2019) REMUX 1080p Latino




Aportes de DPeliculasHDmega la pass es:dpeliculashdmega.org Aportes de CinemaniaHD la pass es:cinemaniahdd.com
Guardado en : Comedia , Drama , Fantasía , Remux

Películas relacionadas

  • La Cacería (2020) REMUX 1080p Latino

    La Cacería (2020) REMUX 1080p Latino

    2020
    La Cacería (2020) REMUX 1080p Latino

    0.0 1h 55m 2020

    Descargar La Cacería (2020) REMUX 1080p Latino. La película sigue a 12 extraños que misteriosamente...

    Director: Lars P. Winther

    Género: Acción

    Actores: Wayne Duvall

  • Rápido y Furioso 3 (2006) Full HD 1080p Latino – CMHDD

    Rápido y Furioso 3 (2006) Full HD 1080p Latino – CMHDD

    2006
    Rápido y Furioso 3 (2006) Full HD 1080p Latino – CMHDD

    0.0 1h 44m 2006

    Shaun Boswell es un chico que no acaba de encajar en ningún grupo. Su única conexión con el mundo...

    Director: Valeria Migliassi Collins

    Género: Acción

    Actores: Zachery Ty Bryan

  • Rápido y Furioso 3 (2006) REMUX 1080p Latino – CMHDD

    Rápido y Furioso 3 (2006) REMUX 1080p Latino – CMHDD

    2006
    Rápido y Furioso 3 (2006) REMUX 1080p Latino – CMHDD

    0.0 1h 44m 2006

    Shaun Boswell es un chico que no acaba de encajar en ningún grupo. Su única conexión con el mundo...

    Director: Valeria Migliassi Collins

    Género: Acción

    Actores: Zachery Ty Bryan

  • Rápido y Furioso 6 (2013) REMUX 1080p Latino – CMHDD

    Rápido y Furioso 6 (2013) REMUX 1080p Latino – CMHDD

    2013
    Rápido y Furioso 6 (2013) REMUX 1080p Latino – CMHDD

    0.0 2h 10m 2013

    Desde que Dom y Brian destruyeron el imperio de un mafioso y se hicieron con cien millones de dólares,...

    Director: Valeria Migliassi Collins

    Género: Acción

    Actores: Vin Diesel

  • Rápido y Furioso 5 (2011) REMUX 1080p Latino – CMHDD

    Rápido y Furioso 5 (2011) REMUX 1080p Latino – CMHDD

    2011
    Rápido y Furioso 5 (2011) REMUX 1080p Latino – CMHDD

    0.0 2h 10m 2011

    Desde que Brian O'Conner (Paul Walker) y Mia Toretto (Jordana Brewster) sacaron a Dom Toretto (Vin Diesel)...

    Director: Valeria Migliassi Collins

    Género: Acción

    Actores: Yorgo Constantine

Comentarios 1