×

¿Problemas para descargar con Mozilla, EDGE? Deshabilita la opción "Abrir vinculos en una pestaña nueva" tal como lo muestra ésta imagen.

Cats (2019) 1080p Latino

1.931 vistas

Información de Cats (2019) 1080p Latino

Datos de la película

  • Calidad: 1080p
  • Audio: Español Latino AC3 5.1 BLURAY - Ingles AC3 5.1 BLURAY
  • Subtitulos: Español Latino SRT - Ingles SRT
  • Resolución: 1920x804p
  • Formato: MKV
  • Codec: H.264
  • Encoder: Melkor
  • Mediainfo: Clic para Mostrar Datos Ver
  • Cats (2019) 1080p Latino-CMHDD.mkv
    Format                      : Matroska
    Format version              : Version 4
    File size                   : 3.52 GiB
    Duration                    : 1 h 49 min
    Overall bit rate            : 4 582 kb/s
    Movie name                  : Cats (2019) CinemaniaHDD.Net
    Encoded date                : UTC 2020-03-29 11:03:11
    Writing application         : mkvmerge v42.0.0 ('Overtime') 64-bit
    Writing library             : libebml v1.3.10 + libmatroska v1.5.2
    Attachments                 : CINEMANIAHD.png

    Video
    ID                          : 1
    Format                      : AVC
    Format/Info                 : Advanced Video Codec
    Format profile              : High@L4.1
    Format settings             : CABAC / 5 Ref Frames
    Format settings, CABAC      : Yes
    Format settings, ReFrames   : 5 frames
    Codec ID                    : V_MPEG4/ISO/AVC
    Duration                    : 1 h 49 min
    Bit rate                    : 3 500 kb/s
    Width                       : 1 920 pixels
    Height                      : 804 pixels
    Display aspect ratio        : 2.40:1
    Frame rate mode             : Constant
    Frame rate                  : 23.976 (24000/1001) FPS
    Color space                 : YUV
    Chroma subsampling          : 4:2:0
    Bit depth                   : 8 bits
    Scan type                   : Progressive
    Bits/(Pixel*Frame)          : 0.095
    Stream size                 : 2.68 GiB (76%)
    Title                       : HD1080p [Bluray]
    Writing library             : x264 core 157 r2935 545de2f
    Encoding settings           : cabac=1 / ref=5 / deblock=1:-1:-1 / analyse=0x3:0x113 / me=hex / subme=8 / psy=1 / psy_rd=1.00:0.15 / mixed_ref=1 / me_range=16 / chroma_me=1 / trellis=2 / 8x8dct=1 / cqm=0 / deadzone=21,11 / fast_pskip=1 / chroma_qp_offset=-3 / threads=25 / lookahead_threads=4 / sliced_threads=0 / nr=0 / decimate=1 / interlaced=0 / bluray_compat=0 / constrained_intra=0 / bframes=3 / b_pyramid=2 / b_adapt=1 / b_bias=0 / direct=3 / weightb=1 / open_gop=0 / weightp=2 / keyint=240 / keyint_min=24 / scenecut=40 / intra_refresh=0 / rc_lookahead=50 / rc=abr / mbtree=1 / bitrate=3500 / ratetol=1.0 / qcomp=0.60 / qpmin=0 / qpmax=69 / qpstep=4 / vbv_maxrate=62500 / vbv_bufsize=78125 / nal_hrd=none / filler=0 / ip_ratio=1.40 / aq=1:1.00
    Default                     : Yes
    Forced                      : Yes
    Color range                 : Limited
    Color primaries             : BT.709
    Transfer characteristics    : BT.709
    Matrix coefficients         : BT.709

    Audio #1
    ID                          : 2
    Format                      : AC-3
    Format/Info                 : Audio Coding 3
    Commercial name             : Dolby Digital
    Codec ID                    : A_AC3
    Duration                    : 1 h 49 min
    Bit rate mode               : Constant
    Bit rate                    : 640 kb/s
    Channel(s)                  : 6 channels
    Channel layout              : L R C LFE Ls Rs
    Sampling rate               : 48.0 kHz
    Frame rate                  : 31.250 FPS (1536 SPF)
    Bit depth                   : 16 bits
    Compression mode            : Lossy
    Stream size                 : 503 MiB (14%)
    Title                       : AC3_5.1_Bluray_Esp
    Language                    : Spanish
    Service kind                : Complete Main
    Default                     : Yes
    Forced                      : Yes

    Audio #2
    ID                          : 3
    Format                      : AC-3
    Format/Info                 : Audio Coding 3
    Commercial name             : Dolby Digital
    Codec ID                    : A_AC3
    Duration                    : 1 h 49 min
    Bit rate mode               : Constant
    Bit rate                    : 448 kb/s
    Channel(s)                  : 6 channels
    Channel layout              : L R C LFE Ls Rs
    Sampling rate               : 48.0 kHz
    Frame rate                  : 31.250 FPS (1536 SPF)
    Bit depth                   : 16 bits
    Compression mode            : Lossy
    Stream size                 : 352 MiB (10%)
    Title                       : AC3_5.1_Bluray_Eng
    Language                    : English
    Service kind                : Complete Main
    Default                     : No
    Forced                      : No

    Text #1
    ID                          : 4
    Format                      : UTF-8
    Codec ID                    : S_TEXT/UTF8
    Codec ID/Info               : UTF-8 Plain Text
    Duration                    : 1 h 47 min
    Bit rate                    : 37 b/s
    Count of elements           : 840
    Stream size                 : 29.4 KiB (0%)
    Title                       : Sub_Forzados
    Language                    : Spanish
    Default                     : Yes
    Forced                      : Yes

    Text #2
    ID                          : 5
    Format                      : UTF-8
    Codec ID                    : S_TEXT/UTF8
    Codec ID/Info               : UTF-8 Plain Text
    Duration                    : 1 h 39 min
    Bit rate                    : 48 b/s
    Count of elements           : 1094
    Stream size                 : 35.7 KiB (0%)
    Title                       : Sub_Esp
    Language                    : Spanish
    Default                     : No
    Forced                      : No

    Text #3
    ID                          : 6
    Format                      : UTF-8
    Codec ID                    : S_TEXT/UTF8
    Codec ID/Info               : UTF-8 Plain Text
    Duration                    : 1 h 44 min
    Bit rate                    : 63 b/s
    Count of elements           : 1185
    Stream size                 : 48.6 KiB (0%)
    Title                       : Sub_Eng
    Language                    : English
    Default                     : No
    Forced                      : No

    Menu
    00:00:00.000                : :Chapter 1
    00:07:44.464                : :Chapter 2
    00:11:33.902                : :Chapter 3
    00:13:32.145                : :Chapter 4
    00:18:06.002                : :Chapter 5
    00:23:01.839                : :Chapter 6
    00:26:31.590                : :Chapter 7
    00:32:34.286                : :Chapter 8
    00:39:38.960                : :Chapter 9
    00:45:09.332                : :Chapter 10
    00:50:32.905                : :Chapter 11
    00:58:08.360                : :Chapter 12
    01:04:10.347                : :Chapter 13
    01:09:11.147                : :Chapter 14
    01:14:19.789                : :Chapter 15
    01:16:02.433                : :Chapter 16
    01:25:08.145                : :Chapter 17
    01:32:09.858                : :Chapter 18
    01:36:56.728                : :Chapter 19
    01:41:21.534                : :Chapter 20

  • Peso: 3.52 GiB

Sinopsis

Descargar Cats (2019) 1080p Latino. En el basurero de los gatos Jélicos, una tribu de gatos deberá decidir como cada año cuál ascenderá a una nueva vida jelical. Allí conoceremos a la gata blanca Victoria (Francesca Hayward), a Old Deuteronomy (Judi Dench) que es quien decide qué gato será el elegido, además de al misterioso Mr. Mistoffelees (Laurie Davidson), al rockero Rum Tum Tugger (Jason Derulo), al refinado Bustopher Jones (James Corden), junto con Grizabella (Jennifer Hudson), Macavity (Idris Elba), Jennyanydots (Rebel Wilson), Gus (Ian McKellen) y Bombalurina (Taylor Swift). Esta película es la adaptación del famoso musical de Broadway Cats basado en la obra de Andrew Lloyd Webber, inspirada a su vez en una colección de poemas de T. S. Eliot.

Ficha técnica

Video trailer de la película

Enlaces de descarga

Aportes de DPeliculasHDmega la pass es:dpeliculashdmega.org Aportes de CinemaniaHD la pass es:cinemaniahdd.com
Guardado en : Comedia , Drama , Fantasía , HD 1080p

Películas relacionadas

  • Jaula Mental (2022) HD 1080p Latino

    Jaula Mental (2022) HD 1080p Latino

    2022
    Jaula Mental (2022) HD 1080p Latino

    1h 47m 2022

    Descargar Jaula Mental (2022) HD 1080p Latino. Cuando un asesino que imita otros crímenes comienza a...

    Director: Mauro Borrelli

    Género: Crimen

    Actores: Victoria Fox

  • Jaula Mental (2022) PLACEBO Full HD 1080p Latino

    Jaula Mental (2022) PLACEBO Full HD 1080p Latino

    2022
    Jaula Mental (2022) PLACEBO Full HD 1080p Latino

    1h 47m 2022

    Descargar Jaula Mental (2022) PLACEBO Full HD 1080p Latino. Cuando un asesino que imita otros crímenes...

    Director: Mauro Borrelli

    Género: Crimen

    Actores: Victoria Fox

  • Jaula Mental (2022) REMUX 1080p Latino

    Jaula Mental (2022) REMUX 1080p Latino

    2022
    Jaula Mental (2022) REMUX 1080p Latino

    1h 47m 2022

    Descargar Jaula Mental (2022) REMUX 1080p Latino. Cuando un asesino que imita otros crímenes comienza...

    Director: Mauro Borrelli

    Género: Crimen

    Actores: Victoria Fox

  • Transfusion (2023) HD 1080p Latino

    Transfusion (2023) HD 1080p Latino

    2023
    Transfusion (2023) HD 1080p Latino

    1h 45m 2023

    Descargar Transfusion (2023) HD 1080p Latino. Un antiguo agente de las Fuerzas Especiales se ve empujado...

    Director: Matt Nable

    Género: Crimen

    Actores: Trystan Go

  • Transfusion (2023) PLACEBO Full HD 1080p Latino

    Transfusion (2023) PLACEBO Full HD 1080p Latino

    2023
    Transfusion (2023) PLACEBO Full HD 1080p Latino

    1h 45m 2023

    Descargar Transfusion (2023) PLACEBO Full HD 1080p Latino. Un antiguo agente de las Fuerzas Especiales...

    Director: Matt Nable

    Género: Crimen

    Actores: Trystan Go

descargar Cats (2019) 1080p Latino 1080p 1080p gratis, Cats (2019) 1080p Latino 1080p mega 1 link, Cats (2019) 1080p Latino 1080p pelicula completa, descargar Cats (2019) 1080p Latino 1080p gratis en mega.

Cats (2019) 1080p Latino pelicula full hd, Cats (2019) 1080p Latino mega latino, Cats (2019) 1080p Latino 4k latino, Cats (2019) 1080p Latino pelicula completa, Cats (2019) 1080p Latino descargar gratis, descargar Cats (2019) 1080p Latino pelicula latino, Cats (2019) 1080p Latino 1 link mega, Cats (2019) 1080p Latino 1 link google drive, Cats (2019) 1080p Latino hd 1080p latino.
Comentarios 0