×

¿Problemas para descargar con Mozilla, EDGE? Deshabilita la opción "Abrir vinculos en una pestaña nueva" tal como lo muestra ésta imagen.

Catherine the Great (2019) Temporada 1 AMZN WEB-DL 1080p Latino

1.768 vistas

Información de Catherine the Great (2019) Temporada 1 AMZN WEB-DL 1080p Latino

Datos de la película

  • Calidad: WEBDL
  • Audio: Español Latino AC3 2.0 - Ingles AC3 5.1 HBO
  • Subtitulos: Español Latino SRT- FORZADOS SRT
  • Resolución: 1920x1080
  • Formato: MKV
  • Codec: H.264
  • Encoder: cinemaniahdd
  • Mediainfo: Clic para Mostrar Datos Ver
  • Catherine the Great T01E02  AMZN WEB-DL 1080p Latino.mkv
    Format                      : Matroska
    Format version              : Version 4
    File size                   : 3.70 GiB
    Duration                    : 58 min 38 s
    Overall bit rate            : 9 041 kb/s
    Movie name                  : Catherine the Great T01E02 - CinemaniaHDD.Net
    Encoded date                : UTC 2019-10-30 21:30:46
    Writing application         : mkvmerge v38.0.0 ('The Silent Type') 64-bit
    Writing library             : libebml v1.3.9 + libmatroska v1.5.2

    Video
    ID                          : 1
    Format                      : AVC
    Format/Info                 : Advanced Video Codec
    Format profile              : High@L4
    Format settings             : CABAC / 4 Ref Frames
    Format settings, CABAC      : Yes
    Format settings, ReFrames   : 4 frames
    Codec ID                    : V_MPEG4/ISO/AVC
    Duration                    : 58 min 38 s
    Bit rate mode               : Constant
    Bit rate                    : 8 143 kb/s
    Nominal bit rate            : 10 000 kb/s
    Width                       : 1 920 pixels
    Height                      : 1 080 pixels
    Display aspect ratio        : 16:9
    Frame rate mode             : Constant
    Frame rate                  : 23.976 (24000/1001) FPS
    Color space                 : YUV
    Chroma subsampling          : 4:2:0
    Bit depth                   : 8 bits
    Scan type                   : Progressive
    Bits/(Pixel*Frame)          : 0.164
    Stream size                 : 3.34 GiB (90%)
    Title                       : CinemaniaHDD
    Default                     : Yes
    Forced                      : No
    Color range                 : Limited
    Color primaries             : BT.709
    Transfer characteristics    : BT.709
    Matrix coefficients         : BT.709

    Audio #1
    ID                          : 2
    Format                      : AC-3
    Format/Info                 : Audio Coding 3
    Commercial name             : Dolby Digital
    Codec ID                    : A_AC3
    Duration                    : 58 min 38 s
    Bit rate mode               : Constant
    Bit rate                    : 256 kb/s
    Channel(s)                  : 2 channels
    Channel layout              : L R
    Sampling rate               : 48.0 kHz
    Frame rate                  : 31.250 FPS (1536 SPF)
    Bit depth                   : 16 bits
    Compression mode            : Lossy
    Delay relative to video     : -18 ms
    Stream size                 : 107 MiB (3%)
    Title                       : Español latino [CinemaniaHDD]
    Language                    : Spanish
    Service kind                : Complete Main
    Default                     : Yes
    Forced                      : No

    Audio #2
    ID                          : 3
    Format                      : E-AC-3
    Format/Info                 : Enhanced AC-3
    Commercial name             : Dolby Digital Plus
    Codec ID                    : A_EAC3
    Duration                    : 58 min 38 s
    Bit rate mode               : Constant
    Bit rate                    : 640 kb/s
    Channel(s)                  : 6 channels
    Channel layout              : L R C LFE Ls Rs
    Sampling rate               : 48.0 kHz
    Frame rate                  : 31.250 FPS (1536 SPF)
    Compression mode            : Lossy
    Delay relative to video     : 10 ms
    Stream size                 : 268 MiB (7%)
    Title                       : Inglés [CinemaniaHDD]
    Language                    : English
    Service kind                : Complete Main
    Default                     : No
    Forced                      : No

    Text #1
    ID                          : 4
    Format                      : UTF-8
    Codec ID                    : S_TEXT/UTF8
    Codec ID/Info               : UTF-8 Plain Text
    Duration                    : 15 s 120 ms
    Bit rate                    : 121 b/s
    Count of elements           : 5
    Stream size                 : 229 Bytes (0%)
    Title                       : Forzados [CinemaniaHDD]
    Language                    : Spanish
    Default                     : Yes
    Forced                      : Yes

    Text #2
    ID                          : 5
    Format                      : UTF-8
    Codec ID                    : S_TEXT/UTF8
    Codec ID/Info               : UTF-8 Plain Text
    Duration                    : 55 min 56 s
    Bit rate                    : 56 b/s
    Count of elements           : 745
    Stream size                 : 23.0 KiB (0%)
    Title                       : Español latino [CinemaniaHDD]
    Language                    : Spanish
    Default                     : No
    Forced                      : No

    Text #3
    ID                          : 6
    Format                      : UTF-8
    Codec ID                    : S_TEXT/UTF8
    Codec ID/Info               : UTF-8 Plain Text
    Duration                    : 58 min 28 s
    Bit rate                    : 69 b/s
    Count of elements           : 988
    Stream size                 : 29.9 KiB (0%)
    Title                       : Inglés [CinemaniaHDD]
    Language                    : English
    Default                     : No
    Forced                      : No

     

  • Peso: 3.45 GiB C/U -- 4 CAPITULO AGREGADO

Sinopsis

La ganadora del Oscar Helen Mirren lidera un extraordinario elenco en Catherine the Great, la miniserie de HBO que sigue los últimos años de Catalina II de Rusia, la tempestuosa monarca que gobernó el imperio ruso y marcó su huella en el mundo durante el siglo XVIII

4 CAPITULO AGREGADO

FINAL DE SERIE

Ficha técnica

  • Titulo original: Catherine the Great
  • Fecha de lanzamiento: 03-10-2019 (GB)
  • Género: Drama, HBO, Series

Video trailer de la película

Enlaces de descarga

Rip de Bluray

Descargar Catherine the Great (2019) Temporada 1 AMZN WEB-DL 1080p Latino




Aportes de DPeliculasHDmega la pass es:dpeliculashdmega.org Aportes de CinemaniaHD la pass es:cinemaniahdd.com
Guardado en : Drama , HBO , Series

Películas relacionadas

Catherine the Great (2019) Temporada 1 AMZN WEB-DL 1080p Latino pelicula full hd, Catherine the Great (2019) Temporada 1 AMZN WEB-DL 1080p Latino mega latino, Catherine the Great (2019) Temporada 1 AMZN WEB-DL 1080p Latino 4k latino, Catherine the Great (2019) Temporada 1 AMZN WEB-DL 1080p Latino pelicula completa, Catherine the Great (2019) Temporada 1 AMZN WEB-DL 1080p Latino descargar gratis, descargar Catherine the Great (2019) Temporada 1 AMZN WEB-DL 1080p Latino pelicula latino, Catherine the Great (2019) Temporada 1 AMZN WEB-DL 1080p Latino 1 link mega, Catherine the Great (2019) Temporada 1 AMZN WEB-DL 1080p Latino 1 link google drive, Catherine the Great (2019) Temporada 1 AMZN WEB-DL 1080p Latino hd 1080p latino.
Comentarios 2
  • Hansolo - 23 octubre, 2019

    Hola dejo este mensaje aquí ya que es un post mas reciente. Podrían resubir las ultimas dos partes de Loco por Mary, o darme permiso de descargarla por google drive o mega, ya que estas dos ultimas partes están restringidas, y de 1ficher caídas. se los agradecería mucho, son los únicos que la tienen en buena calidad, Desde ya muchísimas gracias

    • CinemaniaHDD - 23 octubre, 2019

      ya se arreglo