×

¿Problemas para descargar con Mozilla, EDGE? Deshabilita la opción "Abrir vinculos en una pestaña nueva" tal como lo muestra ésta imagen.

Catching Faith 2: The Homecoming (2019) WEB-DL 1080p Latino

274 vistas

Información de Catching Faith 2: The Homecoming (2019) WEB-DL 1080p Latino

Datos de la película

  • Calidad: WEBDL
  • Audio: Español Latino AC3 2.0 iTunes - Ingles AC3 5.1 iTunes
  • Subtitulos: Español Latino SRT
  • Resolución: 1912x816
  • Formato: MKV
  • Codec: H.264
  • Encoder: CinemaniaHD
  • Mediainfo: Clic para Mostrar Datos Ver
  • Catching Faith 2 The Homecoming (2019) WEB-DL 1080p Latino.mkv
    Format                      : Matroska
    Format version              : Version 4
    File size                   : 3.45 GiB
    Duration                    : 1 h 34 min
    Overall bit rate            : 5 198 kb/s
    Movie name                  : Catching Faith 2 The Homecoming (2019) - CinemaniaHDD.Net
    Encoded date                : UTC 2020-06-19 03:22:56
    Writing application         : mkvmerge v46.0.0 ('No Deeper Escape') 64-bit
    Writing library             : libebml v1.3.10 + libmatroska v1.5.2
    Cover                       : Yes
    Attachments                 : cover.jpg

    Video
    ID                          : 1
    Format                      : AVC
    Format/Info                 : Advanced Video Codec
    Format profile              : High@L4
    Format settings             : CABAC / 5 Ref Frames
    Format settings, CABAC      : Yes
    Format settings, Reference  : 5 frames
    Codec ID                    : V_MPEG4/ISO/AVC
    Duration                    : 1 h 34 min
    Bit rate                    : 4 556 kb/s
    Width                       : 1 912 pixels
    Height                      : 812 pixels
    Display aspect ratio        : 2.35:1
    Frame rate mode             : Constant
    Frame rate                  : 23.976 (24000/1001) FPS
    Color space                 : YUV
    Chroma subsampling          : 4:2:0
    Bit depth                   : 8 bits
    Scan type                   : Progressive
    Bits/(Pixel*Frame)          : 0.122
    Stream size                 : 3.02 GiB (88%)
    Title                       : CinemaniaHDD
    Language                    : English
    Default                     : Yes
    Forced                      : No
    Color range                 : Limited
    Color primaries             : BT.709
    Transfer characteristics    : BT.709
    Matrix coefficients         : BT.709

    Audio #1
    ID                          : 2
    Format                      : AC-3
    Format/Info                 : Audio Coding 3
    Commercial name             : Dolby Digital
    Codec ID                    : A_AC3
    Duration                    : 1 h 34 min
    Bit rate mode               : Constant
    Bit rate                    : 256 kb/s
    Channel(s)                  : 2 channels
    Channel layout              : L R
    Sampling rate               : 48.0 kHz
    Frame rate                  : 31.250 FPS (1536 SPF)
    Compression mode            : Lossy
    Delay relative to video     : -42 ms
    Stream size                 : 174 MiB (5%)
    Title                       : Español latino [CinemaniaHDD]
    Language                    : Spanish
    Service kind                : Complete Main
    Default                     : Yes
    Forced                      : No

    Audio #2
    ID                          : 3
    Format                      : AC-3
    Format/Info                 : Audio Coding 3
    Commercial name             : Dolby Digital
    Codec ID                    : A_AC3
    Duration                    : 1 h 34 min
    Bit rate mode               : Constant
    Bit rate                    : 384 kb/s
    Channel(s)                  : 6 channels
    Channel layout              : L R C LFE Ls Rs
    Sampling rate               : 48.0 kHz
    Frame rate                  : 31.250 FPS (1536 SPF)
    Compression mode            : Lossy
    Delay relative to video     : -42 ms
    Stream size                 : 261 MiB (7%)
    Title                       : Inglés [CinemaniaHDD]
    Language                    : English
    Service kind                : Complete Main
    Default                     : No
    Forced                      : No

    Text #1
    ID                          : 4
    Format                      : UTF-8
    Codec ID                    : S_TEXT/UTF8
    Codec ID/Info               : UTF-8 Plain Text
    Duration                    : 58 min 49 s
    Bit rate                    : 0 b/s
    Count of elements           : 6
    Stream size                 : 203 Bytes (0%)
    Title                       : Forzados [CinemaniaHDD]
    Language                    : Spanish
    Default                     : Yes
    Forced                      : Yes

    Text #2
    ID                          : 5
    Format                      : UTF-8
    Codec ID                    : S_TEXT/UTF8
    Codec ID/Info               : UTF-8 Plain Text
    Duration                    : 1 h 30 min
    Bit rate                    : 75 b/s
    Count of elements           : 1520
    Stream size                 : 49.9 KiB (0%)
    Title                       : Español latino [CinemaniaHDD]
    Language                    : Spanish
    Default                     : No
    Forced                      : No

    Menu #1
    00:00:00.000                : en:1
    00:08:12.909                : en:2
    00:19:59.865                : en:3
    00:30:18.775                : en:4
    00:39:23.444                : en:5
    00:52:42.034                : en:6
    01:00:36.842                : en:7
    01:11:42.716                : en:8
    01:20:47.218                : en:9
    01:30:48.444                : en:10

    Menu #2
    00:00:00.000                : en:1
    00:16:22.564                : en:2
    00:32:41.917                : en:3
    00:48:50.676                : en:4
    01:09:19.903                : en:5
    01:30:47.230                : en:6

     

  • Peso: 3.45 GiB

Sinopsis

Todo parece estar yendo mal para la familia Taylor en este momento. Justo cuando Alexa comienza a trabajar en el trabajo de sus sueños, se siente abrumada por el cuidado de su madre que padece la enfermedad de Alzheimer. Su hijo, Beau, acaba de perder su carrera profesional en el fútbol debido a una lesión y su hija, Ravyn, necesita ayuda para planificar su boda de última hora. Solo con el apoyo de amigos y la gracia guía de su fe, los Taylor pueden encontrar la fuerza para hacer frente a la ola de drama y tragedia que se extiende por sus vidas.

Ficha técnica

Video trailer de la película

Enlaces de descarga

Rip de Bluray

Descargar Catching Faith 2: The Homecoming (2019) WEB-DL 1080p Latino




Aportes de DPeliculasHDmega la pass es:dpeliculashdmega.org Aportes de CinemaniaHD la pass es:cinemaniahdd.com
Guardado en : Drama , Familia

Películas relacionadas

descargar Catching Faith 2: The Homecoming (2019) WEB-DL 1080p Latino WEBDL 1080p gratis, Catching Faith 2: The Homecoming (2019) WEB-DL 1080p Latino WEBDL mega 1 link, Catching Faith 2: The Homecoming (2019) WEB-DL 1080p Latino WEBDL pelicula completa, descargar Catching Faith 2: The Homecoming (2019) WEB-DL 1080p Latino WEBDL gratis en mega.

Catching Faith 2: The Homecoming (2019) WEB-DL 1080p Latino pelicula full hd, Catching Faith 2: The Homecoming (2019) WEB-DL 1080p Latino mega latino, Catching Faith 2: The Homecoming (2019) WEB-DL 1080p Latino 4k latino, Catching Faith 2: The Homecoming (2019) WEB-DL 1080p Latino pelicula completa, Catching Faith 2: The Homecoming (2019) WEB-DL 1080p Latino descargar gratis, descargar Catching Faith 2: The Homecoming (2019) WEB-DL 1080p Latino pelicula latino, Catching Faith 2: The Homecoming (2019) WEB-DL 1080p Latino 1 link mega, Catching Faith 2: The Homecoming (2019) WEB-DL 1080p Latino 1 link google drive, Catching Faith 2: The Homecoming (2019) WEB-DL 1080p Latino hd 1080p latino.
Comentarios 0