Catch the Bullet (2021) REMUX 1080p Latino

9 vistas
1 estrella2 estrellas3 estrellas4 estrellas5 estrellas (1 votos, promedio: 5,00 de 5)
Cargando...

Información de Catch the Bullet (2021) REMUX 1080p Latino

Datos de la película

  • Calidad: Full 1080p
  • Audio: Español Latino AC3 5.1 WEB-DL - Ingles DTS 5.1 BLURAY
  • Subtitulos: Español Latino PGS - Ingles PGS
  • Resolución: 1920x1080p
  • Formato: MKV
  • Codec: H.264
  • Encoder: Melkor
  • Mediainfo: Clic para Mostrar Datos Ver
  • Catch the Bullet (2021) REMUX 1080p Latino.mkv
    Format                      : Matroska
    Format version              : Version 4
    File size                   : 20.8 GiB
    Duration                    : 1 h 28 min
    Overall bit rate mode       : Variable
    Overall bit rate            : 33.5 Mb/s
    Movie name                  : Catch the Bullet (2021) CinemaniaHDD.Net
    Encoded date                : UTC 2021-09-14 07:24:44
    Writing application         : mkvmerge v56.1.0 ('My Friend') 64-bit
    Writing library             : libebml v1.4.2 + libmatroska v1.6.4
    Attachments                 : CINEMANIAHD.png

    Video
    ID                          : 1
    Format                      : AVC
    Format/Info                 : Advanced Video Codec
    Format profile              : High@L4.1
    Format settings             : CABAC / 4 Ref Frames
    Format settings, CABAC      : Yes
    Format settings, Reference  : 4 frames
    Codec ID                    : V_MPEG4/ISO/AVC
    Duration                    : 1 h 28 min
    Bit rate mode               : Variable
    Bit rate                    : 28.8 Mb/s
    Maximum bit rate            : 37.0 Mb/s
    Width                       : 1 920 pixels
    Height                      : 1 080 pixels
    Display aspect ratio        : 16:9
    Frame rate mode             : Constant
    Frame rate                  : 23.976 (24000/1001) FPS
    Color space                 : YUV
    Chroma subsampling          : 4:2:0
    Bit depth                   : 8 bits
    Scan type                   : Progressive
    Bits/(Pixel*Frame)          : 0.579
    Stream size                 : 17.9 GiB (86%)
    Title                       : REMUX HD1080p [CinemaniaHDD]
    Language                    : English
    Default                     : Yes
    Forced                      : Yes

    Audio #1
    ID                          : 2
    Format                      : AC-3
    Format/Info                 : Audio Coding 3
    Commercial name             : Dolby Digital
    Codec ID                    : A_AC3
    Duration                    : 1 h 28 min
    Bit rate mode               : Constant
    Bit rate                    : 640 kb/s
    Channel(s)                  : 6 channels
    Channel layout              : L R C LFE Ls Rs
    Sampling rate               : 48.0 kHz
    Frame rate                  : 31.250 FPS (1536 SPF)
    Compression mode            : Lossy
    Stream size                 : 407 MiB (2%)
    Title                       : Español Latino [CinemaniaHDD]
    Language                    : Spanish
    Service kind                : Complete Main
    Default                     : Yes
    Forced                      : Yes

    Audio #2
    ID                          : 3
    Format                      : DTS XLL
    Format/Info                 : Digital Theater Systems
    Commercial name             : DTS-HD Master Audio
    Codec ID                    : A_DTS
    Duration                    : 1 h 28 min
    Bit rate mode               : Variable
    Bit rate                    : 4 007 kb/s
    Channel(s)                  : 6 channels
    Channel layout              : C L R Ls Rs LFE
    Sampling rate               : 48.0 kHz
    Frame rate                  : 93.750 FPS (512 SPF)
    Bit depth                   : 24 bits
    Compression mode            : Lossless
    Stream size                 : 2.49 GiB (12%)
    Title                       : Ingles [CinemaniaHDD]
    Language                    : English
    Default                     : No
    Forced                      : No

    Text #1
    ID                          : 4
    Format                      : PGS
    Muxing mode                 : zlib
    Codec ID                    : S_HDMV/PGS
    Codec ID/Info               : Picture based subtitle format used on BDs/HD-DVDs
    Duration                    : 1 h 27 min
    Bit rate                    : 28.7 kb/s
    Count of elements           : 2018
    Stream size                 : 18.0 MiB (0%)
    Title                       : Español-PGS [CinemaniaHDD]
    Language                    : Spanish
    Default                     : No
    Forced                      : No

    Text #2
    ID                          : 5
    Format                      : PGS
    Muxing mode                 : zlib
    Codec ID                    : S_HDMV/PGS
    Codec ID/Info               : Picture based subtitle format used on BDs/HD-DVDs
    Duration                    : 1 h 26 min
    Bit rate                    : 31.7 kb/s
    Count of elements           : 2292
    Stream size                 : 19.5 MiB (0%)
    Title                       : Ingles-PGS [CinemaniaHDD]
    Language                    : English
    Default                     : No
    Forced                      : No

    Text #3
    ID                          : 6
    Format                      : UTF-8
    Codec ID                    : S_TEXT/UTF8
    Codec ID/Info               : UTF-8 Plain Text
    Duration                    : 2 s 752 ms
    Bit rate                    : 40 b/s
    Count of elements           : 1
    Stream size                 : 14.0 Bytes (0%)
    Title                       : Forzados-SRT [CinemaniaHDD]
    Language                    : Spanish
    Default                     : Yes
    Forced                      : Yes

    Text #4
    ID                          : 7
    Format                      : UTF-8
    Codec ID                    : S_TEXT/UTF8
    Codec ID/Info               : UTF-8 Plain Text
    Duration                    : 1 h 25 min
    Bit rate                    : 47 b/s
    Count of elements           : 1008
    Stream size                 : 29.9 KiB (0%)
    Title                       : Español-SRT [CinemaniaHDD]
    Language                    : Spanish
    Default                     : No
    Forced                      : No

    Menu
    00:00:00.000                : Chapter 01
    00:04:27.267                : Chapter 02
    00:10:39.722                : Chapter 03
    00:16:56.182                : Chapter 04
    00:24:08.238                : Chapter 05
    00:29:26.306                : Chapter 06
    00:35:11.109                : Chapter 07
    00:39:51.180                : Chapter 08
    00:44:43.556                : Chapter 09
    00:52:07.333                : Chapter 10
    00:56:25.674                : Chapter 11
    01:01:23.013                : Chapter 12
    01:07:29.045                : Chapter 13
    01:12:24.757                : Chapter 14
    01:17:10.793                : Chapter 15
    01:24:37.906                : Chapter 16

  • Peso: 20.8 GiB

Sinopsis

Descargar Catch the Bullet (2021) REMUX 1080p Latino. El despiadado oficial Britt MacMasters regresa a casa y descubre que su hijo Chad ha sido secuestrado por la banda de forajidos de Jed Blake. Aunando fuerzas con un guía indio, Chaska, y con Clay Tucker, un oficial subordinado que no confía en el guía, Britt se adentra en territorio Sioux.

Ficha técnica

  • Titulo original: Catch the Bullet
  • Fecha de lanzamiento: 10-09-2021
  • Director: Michael Feifer
  • Género: Acción, Remux, Western
  • Puntuación: 5.0 1 votos
  • Duración:
    1h 29m

Video trailer de la película

Enlaces de descarga

Rip de Bluray

Descargar Catch the Bullet (2021) REMUX 1080p Latino




Aportes de DPeliculasHDmega la pass es:dpeliculashdmega.org Aportes de CinemaniaHD la pass es:cinemaniahdd.com
Guardado en : Acción , Remux , Western

Películas relacionadas

Catch the Bullet (2021) REMUX 1080p Latino pelicula full hd, Catch the Bullet (2021) REMUX 1080p Latino mega latino, Catch the Bullet (2021) REMUX 1080p Latino 4k latino, Catch the Bullet (2021) REMUX 1080p Latino pelicula completa, Catch the Bullet (2021) REMUX 1080p Latino descargar gratis, descargar Catch the Bullet (2021) REMUX 1080p Latino pelicula latino, Catch the Bullet (2021) REMUX 1080p Latino 1 link mega, Catch the Bullet (2021) REMUX 1080p Latino 1 link google drive, Catch the Bullet (2021) REMUX 1080p Latino hd 1080p latino.
Comentarios 0