×

¿Problemas para descargar con Mozilla, EDGE? Deshabilita la opción "Abrir vinculos en una pestaña nueva" tal como lo muestra ésta imagen.

Atrapenlos: Mision Sin Permiso (2004) Amzn Web-DL 1080p Latino-CMHDD

187 vistas

Información de Atrapenlos: Mision Sin Permiso (2004) Amzn Web-DL 1080p Latino-CMHDD

Datos de la película

  • Calidad: WEBDL
  • Audio: Se especifica abajo de la Sinopsis
  • Subtitulos: Español Latino SRT - Ingles SRT
  • Resolución: 1920x1080p
  • Formato: MKV
  • Codec: H.264
  • Encoder: CinefiloCool
  • Mediainfo: Clic para Mostrar Datos Ver
  • Atrapenlos - Mision Sin Permiso (2004) Web-DL 1080p Latino-CMHDD.mkv
    Format                      : Matroska
    Format version              : Version 4
    File size                   : 8.77 GiB
    Duration                    : 1 h 31 min
    Overall bit rate mode       : Variable
    Overall bit rate            : 13.7 Mb/s
    Movie name                  : Catch That Kid (2004) CinemaniaHDD.Net
    Encoded date                : UTC 2021-09-14 07:44:59
    Writing application         : mkvmerge v56.1.0 ('My Friend') 64-bit
    Writing library             : libebml v1.4.2 + libmatroska v1.6.4
    Attachments                 : CINEMANIAHD.png

    Video
    ID                          : 1
    Format                      : AVC
    Format/Info                 : Advanced Video Codec
    Format profile              : High@L4
    Format settings             : CABAC / 4 Ref Frames
    Format settings, CABAC      : Yes
    Format settings, Reference  : 4 frames
    Codec ID                    : V_MPEG4/ISO/AVC
    Duration                    : 1 h 31 min
    Bit rate mode               : Variable
    Bit rate                    : 12.8 Mb/s
    Maximum bit rate            : 15.0 Mb/s
    Width                       : 1 920 pixels
    Height                      : 1 080 pixels
    Display aspect ratio        : 16:9
    Frame rate mode             : Constant
    Frame rate                  : 23.976 (24000/1001) FPS
    Color space                 : YUV
    Chroma subsampling          : 4:2:0
    Bit depth                   : 8 bits
    Scan type                   : Progressive
    Bits/(Pixel*Frame)          : 0.257
    Stream size                 : 8.19 GiB (93%)
    Title                       : Web HD1080p [CinemaniaHDD]
    Default                     : Yes
    Forced                      : No
    Color range                 : Limited
    Color primaries             : BT.709
    Transfer characteristics    : BT.709
    Matrix coefficients         : BT.709

    Audio #1
    ID                          : 2
    Format                      : AC-3
    Format/Info                 : Audio Coding 3
    Commercial name             : Dolby Digital
    Codec ID                    : A_AC3
    Duration                    : 1 h 31 min
    Bit rate mode               : Constant
    Bit rate                    : 256 kb/s
    Channel(s)                  : 2 channels
    Channel layout              : L R
    Sampling rate               : 48.0 kHz
    Frame rate                  : 31.250 FPS (1536 SPF)
    Compression mode            : Lossy
    Stream size                 : 168 MiB (2%)
    Title                       : Español Latino [CinemaniaHDD]
    Language                    : Spanish
    Service kind                : Complete Main
    Default                     : Yes
    Forced                      : No

    Audio #2
    ID                          : 3
    Format                      : E-AC-3
    Format/Info                 : Enhanced AC-3
    Commercial name             : Dolby Digital Plus
    Codec ID                    : A_EAC3
    Duration                    : 1 h 31 min
    Bit rate mode               : Constant
    Bit rate                    : 640 kb/s
    Channel(s)                  : 6 channels
    Channel layout              : L R C LFE Ls Rs
    Sampling rate               : 48.0 kHz
    Frame rate                  : 31.250 FPS (1536 SPF)
    Compression mode            : Lossy
    Stream size                 : 421 MiB (5%)
    Title                       : Ingles [CinemaniaHDD]
    Language                    : English
    Service kind                : Complete Main
    Default                     : No
    Forced                      : No

    Text #1
    ID                          : 4
    Format                      : UTF-8
    Codec ID                    : S_TEXT/UTF8
    Codec ID/Info               : UTF-8 Plain Text
    Duration                    : 1 h 25 min
    Bit rate                    : 0 b/s
    Count of elements           : 12
    Stream size                 : 298 Bytes (0%)
    Title                       : Forzados-SRT [CinemaniaHDD]
    Language                    : Spanish
    Default                     : Yes
    Forced                      : No

    Text #2
    ID                          : 5
    Format                      : UTF-8
    Codec ID                    : S_TEXT/UTF8
    Codec ID/Info               : UTF-8 Plain Text
    Duration                    : 1 h 25 min
    Bit rate                    : 52 b/s
    Count of elements           : 868
    Stream size                 : 32.5 KiB (0%)
    Title                       : Español-SRT [CinemaniaHDD]
    Language                    : Spanish
    Default                     : No
    Forced                      : No

    Text #3
    ID                          : 6
    Format                      : UTF-8
    Codec ID                    : S_TEXT/UTF8
    Codec ID/Info               : UTF-8 Plain Text
    Duration                    : 1 h 31 min
    Bit rate                    : 70 b/s
    Count of elements           : 1904
    Stream size                 : 47.1 KiB (0%)
    Title                       : Ingles-SRT [CinemaniaHDD]
    Language                    : English
    Default                     : No
    Forced                      : No

  • Peso: 8.77 GiB

Sinopsis

Descargar Atrapenlos: Mision Sin Permiso (2004) Amzn Web-DL 1080p Latino-CMHDD. Maddy, Gus y Austin son una chica y dos chicos en una misión para la que no tienen permiso. Cada uno es especialista en un campo: escalar, genio de los ordenadores y maestro de la mecánica. Su tarea: robar uno de los más impenetrables bancos para salvar a su padre con problemas. Su plan está a prueba de contratiempos y sus métodos son ingeniosos. Y eso que todavía no tienen edad para conducir…

Audio Español Latino AC3 2.0 D+ – Ingles EAC3 5.1 AMZN

Ficha técnica

Video trailer de la película

Enlaces de descarga

Rip de Bluray

Descargar Atrapenlos: Mision Sin Permiso (2004) Amzn Web-DL 1080p Latino-CMHDD




Aportes de DPeliculasHDmega la pass es:dpeliculashdmega.org Aportes de CinemaniaHD la pass es:cinemaniahdd.com
Guardado en : Acción , Aventura , Familia

Películas relacionadas

  • Un mundo extraño (2022) HD 1080p Latino

    Un mundo extraño (2022) HD 1080p Latino

    2022
    Un mundo extraño (2022) HD 1080p Latino

    1h 42m 2022

    Descargar Un mundo extraño (2022) HD 1080p Latino. Los Clades son una familia conocida en todo el mundo,...

    Director: Thai Bettistea

    Género: Animación

    Actores: Reed Buck

  • Un mundo extraño (2022) REMUX 1080p Latino

    Un mundo extraño (2022) REMUX 1080p Latino

    2022
    Un mundo extraño (2022) REMUX 1080p Latino

    1h 42m 2022

    Descargar Un mundo extraño (2022) REMUX 1080p. Un viaje a una tierra inexplorada y traicionera en la...

    Director: Thai Bettistea

    Género: Animación

    Actores: Reed Buck

  • Espiritu Libre (2023) NF WEB-DL 1080p Latino

    Espiritu Libre (2023) NF WEB-DL 1080p Latino

    2023
    Espiritu Libre (2023) NF WEB-DL 1080p Latino

    1h 49m 2023

    Descargar Espiritu Libre (2023) NF WEB-DL 1080p Latino. La película se basa en la increíble historia...

    Director: Sarah Spillane

    Género: Aventura

    Actores: Vivien Turner

descargar Atrapenlos: Mision Sin Permiso (2004) Amzn Web-DL 1080p Latino-CMHDD WEBDL 1080p gratis, Atrapenlos: Mision Sin Permiso (2004) Amzn Web-DL 1080p Latino-CMHDD WEBDL mega 1 link, Atrapenlos: Mision Sin Permiso (2004) Amzn Web-DL 1080p Latino-CMHDD WEBDL pelicula completa, descargar Atrapenlos: Mision Sin Permiso (2004) Amzn Web-DL 1080p Latino-CMHDD WEBDL gratis en mega.

Atrapenlos: Mision Sin Permiso (2004) Amzn Web-DL 1080p Latino-CMHDD pelicula full hd, Atrapenlos: Mision Sin Permiso (2004) Amzn Web-DL 1080p Latino-CMHDD mega latino, Atrapenlos: Mision Sin Permiso (2004) Amzn Web-DL 1080p Latino-CMHDD 4k latino, Atrapenlos: Mision Sin Permiso (2004) Amzn Web-DL 1080p Latino-CMHDD pelicula completa, Atrapenlos: Mision Sin Permiso (2004) Amzn Web-DL 1080p Latino-CMHDD descargar gratis, descargar Atrapenlos: Mision Sin Permiso (2004) Amzn Web-DL 1080p Latino-CMHDD pelicula latino, Atrapenlos: Mision Sin Permiso (2004) Amzn Web-DL 1080p Latino-CMHDD 1 link mega, Atrapenlos: Mision Sin Permiso (2004) Amzn Web-DL 1080p Latino-CMHDD 1 link google drive, Atrapenlos: Mision Sin Permiso (2004) Amzn Web-DL 1080p Latino-CMHDD hd 1080p latino.
Comentarios 0