×

¿Problemas para descargar con Mozilla, EDGE? Deshabilita la opción "Abrir vinculos en una pestaña nueva" tal como lo muestra ésta imagen.

Casualties of War (1989) REMUX 1080p Latino – CMHDD

121 vistas

Información de Casualties of War (1989) REMUX 1080p Latino – CMHDD

Datos de la película

  • Calidad: Full 1080p
  • Audio: Español Latino AC3 5.1 BLURAY - Ingles DTS 5.1 BLURAY
  • Subtitulos: Español Latino PGS
  • Resolución: 1920x1080p
  • Formato: MKV
  • Codec: H.264
  • Encoder: Dracarys
  • Mediainfo: Clic para Mostrar Datos Ver
  • Format                      : Matroska
    Format version              : Version 4
    File size                   : 24.4 GiB
    Duration                    : 1 h 53 min
    Overall bit rate mode       : Variable
    Overall bit rate            : 30.8 Mb/s
    Movie name                  : Casualties of War (1989) REMUX 1080p Latino - CMHDD
    Encoded date                : UTC 2021-09-17 16:23:47
    Writing application         : mkvmerge v17.0.0 ('Be Ur Friend') 64-bit
    Writing library             : libebml v1.3.5 + libmatroska v1.4.8

    Video
    ID                          : 1
    Format                      : AVC
    Format/Info                 : Advanced Video Codec
    Format profile              : High@L4.1
    Format settings             : CABAC / 2 Ref Frames
    Format settings, CABAC      : Yes
    Format settings, Reference  : 2 frames
    Codec ID                    : V_MPEG4/ISO/AVC
    Duration                    : 1 h 53 min
    Bit rate mode               : Variable
    Bit rate                    : 27.9 Mb/s
    Width                       : 1 920 pixels
    Height                      : 1 080 pixels
    Display aspect ratio        : 16:9
    Frame rate mode             : Constant
    Frame rate                  : 23.976 (24000/1001) FPS
    Color space                 : YUV
    Chroma subsampling          : 4:2:0
    Bit depth                   : 8 bits
    Scan type                   : Progressive
    Bits/(Pixel*Frame)          : 0.561
    Stream size                 : 22.1 GiB (91%)
    Default                     : Yes
    Forced                      : No

    Audio #1
    ID                          : 2
    Format                      : DTS XLL
    Format/Info                 : Digital Theater Systems
    Commercial name             : DTS-HD Master Audio
    Codec ID                    : A_DTS
    Duration                    : 1 h 53 min
    Bit rate mode               : Variable
    Bit rate                    : 2 216 kb/s
    Channel(s)                  : 6 channels
    Channel layout              : C L R Ls Rs LFE
    Sampling rate               : 48.0 kHz
    Frame rate                  : 93.750 FPS (512 SPF)
    Bit depth                   : 16 bits
    Compression mode            : Lossless
    Stream size                 : 1.76 GiB (7%)
    Language                    : English
    Default                     : No
    Forced                      : No

    Audio #2
    ID                          : 3
    Format                      : AC-3
    Format/Info                 : Audio Coding 3
    Commercial name             : Dolby Digital
    Codec ID                    : A_AC3
    Duration                    : 1 h 53 min
    Bit rate mode               : Constant
    Bit rate                    : 640 kb/s
    Channel(s)                  : 6 channels
    Channel layout              : L R C LFE Ls Rs
    Sampling rate               : 48.0 kHz
    Frame rate                  : 31.250 FPS (1536 SPF)
    Compression mode            : Lossy
    Stream size                 : 520 MiB (2%)
    Language                    : Spanish
    Service kind                : Complete Main
    Default                     : Yes
    Forced                      : No

    Text
    ID                          : 4
    Format                      : PGS
    Muxing mode                 : zlib
    Codec ID                    : S_HDMV/PGS
    Codec ID/Info               : Picture based subtitle format used on BDs/HD-DVDs
    Duration                    : 1 h 48 min
    Bit rate                    : 28.4 kb/s
    Count of elements           : 2240
    Stream size                 : 22.1 MiB (0%)
    Language                    : Spanish
    Default                     : No
    Forced                      : No

    Menu
    00:00:00.000                : en:Chapter 1
    00:07:43.045                : en:Chapter 2
    00:14:29.910                : en:Chapter 3
    00:21:09.643                : en:Chapter 4
    00:29:11.666                : en:Chapter 5
    00:35:42.431                : en:Chapter 6
    00:42:07.233                : en:Chapter 7
    00:53:08.018                : en:Chapter 8
    00:56:53.451                : en:Chapter 9
    01:03:17.251                : en:Chapter 10
    01:11:28.951                : en:Chapter 11
    01:17:04.036                : en:Chapter 12
    01:23:05.814                : en:Chapter 13
    01:30:22.333                : en:Chapter 14
    01:38:19.518                : en:Chapter 15
    01:43:58.232                : en:Chapter 16

  • Peso: 24.4 GiB

Sinopsis

Durante la guerra de Vietnam, unos soldados americanos secuestran, violan y asesinan a una joven campesina inocente. El único soldado del pelotón que no ha participado en los hechos se siente, sin embargo, cómplice del crimen, y amenaza con denunciarlo a sus superiores. Por eso se convierte en el objetivo de sus propios compañeros, liderados por un psicopático sargento. Basada en una historia real, aparecida en un periódico americano, la película reflexiona sobre el horror de la guerra y la vida de los combatientes, así como también de la propia naturaleza humana ante situaciones límite. La cinta se beneficia, además, de un inesperado duelo interpretativo entre el siempre espléndido Sean Penn y Michael J. Fox, en uno de los papeles más dramáticos de su carrera.

Ficha técnica

Video trailer de la película

Enlaces de descarga

Rip de Bluray

Descargar Casualties of War (1989) REMUX 1080p Latino – CMHDD


Aportes de DPeliculasHDmega la pass es:dpeliculashdmega.org Aportes de CinemaniaHD la pass es:cinemaniahdd.com
Guardado en : Bélica , Drama , Historia

Películas relacionadas

descargar Casualties of War (1989) REMUX 1080p Latino – CMHDD Full 1080p 1080p gratis, Casualties of War (1989) REMUX 1080p Latino – CMHDD Full 1080p mega 1 link, Casualties of War (1989) REMUX 1080p Latino – CMHDD Full 1080p pelicula completa, descargar Casualties of War (1989) REMUX 1080p Latino – CMHDD Full 1080p gratis en mega.

Casualties of War (1989) REMUX 1080p Latino – CMHDD pelicula full hd, Casualties of War (1989) REMUX 1080p Latino – CMHDD mega latino, Casualties of War (1989) REMUX 1080p Latino – CMHDD 4k latino, Casualties of War (1989) REMUX 1080p Latino – CMHDD pelicula completa, Casualties of War (1989) REMUX 1080p Latino – CMHDD descargar gratis, descargar Casualties of War (1989) REMUX 1080p Latino – CMHDD pelicula latino, Casualties of War (1989) REMUX 1080p Latino – CMHDD 1 link mega, Casualties of War (1989) REMUX 1080p Latino – CMHDD 1 link google drive, Casualties of War (1989) REMUX 1080p Latino – CMHDD hd 1080p latino.