Castle Rock (2018) Primera temporada [HULU] WEB-DL 1080p Subtitulado

1.111 vistas
1 estrella2 estrellas3 estrellas4 estrellas5 estrellas (1 votos, promedio: 5,00 de 5)
Cargando…

Información de Castle Rock (2018) Primera temporada [HULU] WEB-DL 1080p Subtitulado

Datos de la película

  • Calidad: WEBDL
  • Audio: Se especifica abajo de la Sinopsis
  • Subtitulos: Español Latino SRT
  • Resolución: 1920x1080p
  • Formato: MKV
  • Codec: H.264
  • Encoder: Dracarys
  • Mediainfo: Clic para Mostrar Datos Ver
  • Format                                   : Matroska
    Format version                           : Version 4 / Version 2
    File size                                : 1.39 GiB
    Duration                                 : 54 min 32 s
    Overall bit rate                         : 3 656 kb/s
    Movie name                               : CinemnaiaHDD.net
    Encoded date                             : UTC 2018-09-22 21:46:28
    Writing application                      : mkvmerge v15.0.0 ('Duel with the Devil') 64-bit
    Writing library                          : libebml v1.3.5 + libmatroska v1.4.5

    Video
    ID                                       : 1
    Format                                   : AVC
    Format/Info                              : Advanced Video Codec
    Format profile                           : High@L4
    Format settings                          : CABAC / 4 Ref Frames
    Format settings, CABAC                   : Yes
    Format settings, RefFrames               : 4 frames
    Codec ID                                 : V_MPEG4/ISO/AVC
    Duration                                 : 54 min 32 s
    Bit rate                                 : 3 590 kb/s
    Width                                    : 1 920 pixels
    Height                                   : 1 080 pixels
    Display aspect ratio                     : 16:9
    Frame rate mode                          : Constant
    Frame rate                               : 23.976 (24000/1001) FPS
    Color space                              : YUV
    Chroma subsampling                       : 4:2:0
    Bit depth                                : 8 bits
    Scan type                                : Progressive
    Bits/(Pixel*Frame)                       : 0.072
    Stream size                              : 1.37 GiB (98%)
    Default                                  : Yes
    Forced                                   : No

    Audio
    ID                                       : 2
    Format                                   : AAC
    Format/Info                              : Advanced Audio Codec
    Format profile                           : HE-AAC / LC
    Format settings                          : Explicit
    Codec ID                                 : A_AAC-2
    Duration                                 : 54 min 32 s
    Bit rate                                 : 64.0 kb/s
    Channel(s)                               : 2 channels
    Channel positions                        : Front: L R
    Sampling rate                            : 48.0 kHz / 24.0 kHz
    Frame rate                               : 23.438 FPS (1024 SPF)
    Compression mode                         : Lossy
    Stream size                              : 25.0 MiB (2%)
    Language                                 : English
    Default                                  : Yes
    Forced                                   : No

    Text #1
    ID                                       : 3
    Format                                   : UTF-8
    Codec ID                                 : S_TEXT/UTF8
    Codec ID/Info                            : UTF-8 Plain Text
    Duration                                 : 54 min 15 s
    Bit rate                                 : 44 b/s
    Count of elements                        : 618
    Stream size                              : 17.6 KiB (0%)
    Language                                 : English
    Default                                  : No
    Forced                                   : No

    Text #2
    ID                                       : 4
    Format                                   : UTF-8
    Codec ID                                 : S_TEXT/UTF8
    Codec ID/Info                            : UTF-8 Plain Text
    Duration                                 : 51 min 42 s
    Bit rate                                 : 36 b/s
    Count of elements                        : 466
    Stream size                              : 13.7 KiB (0%)
    Language                                 : Spanish
    Default                                  : Yes
    Forced                                   : No

    Menu
    00:00:00.000                             : en:Chapter 1
    00:14:57.333                             : en:Chapter 2
    00:29:13.625                             : en:Chapter 3
    00:43:48.541                             : en:Chapter 4

  • Peso: 1.10 GiB X Capitulo

Sinopsis

Serie de terror psicológico ambientada en el universo de Stephen King. “Castle Rock” combina la mitología y la narración de algunos de los personajes más célebres de las novelas de Stephen King tejiendo una saga épica de oscuridad y luz, que transcurre en un área de unos cuantos kilómetros cuadrados en Maine. Castle Rock es el pequeño pueblo donde transcurren varias novelas de King como “Cujo”, “La Mitad Oscura”, “La Tienda” e incluso hay referencias a ella en “The Body” o “Cadena Perpetua”. Cada una de las temporadas tendrá personajes e historias diferentes pero estarán relacionadas entre ellas de algún modo. La primera temporada constará de diez episodios.

 

 

Ingles: AAC 2.0

Ficha técnica

Video trailer de la película

Enlaces de descarga

Rip de Bluray

Descargar Castle Rock (2018) Primera temporada [HULU] WEB-DL 1080p Subtitulado




Aportes de DPeliculasHDmega la pass es:dpeliculashdmega.org Aportes de CinemaniaHD la pass es:cinemaniahdd.com
Guardado en : Drama , Misterio , Sci-Fi & Fantasy , Series

Películas relacionadas

Comentarios 0