×

¿Problemas para descargar con Mozilla, EDGE? Deshabilita la opción "Abrir vinculos en una pestaña nueva" tal como lo muestra ésta imagen.

Castle Falls (2021) REMUX 1080p Latino

94 vistas

Información de Castle Falls (2021) REMUX 1080p Latino

Datos de la película

  • Calidad: Full 1080p
  • Audio: Español Latino AC3 2.0 WEB-DL - Ingles DTS 5.1 BLURAY
  • Subtitulos: Español Latino SRT- FORZADOS SRT
  • Resolución: 1920x1080p
  • Formato: MKV
  • Codec: H.264
  • Encoder: Melkor
  • Mediainfo: Clic para Mostrar Datos Ver
  • Castle Falls (2021) REMUX 1080p Latino.mkv
    Format                      : Matroska
    Format version              : Version 4
    File size                   : 21.1 GiB
    Duration                    : 1 h 29 min
    Overall bit rate mode       : Variable
    Overall bit rate            : 33.7 Mb/s
    Movie name                  : Castle Falls (2021) CinemaniaHDD.Net
    Encoded date                : UTC 2022-07-12 01:29:08
    Writing application         : mkvmerge v56.1.0 ('My Friend') 64-bit
    Writing library             : libebml v1.4.2 + libmatroska v1.6.4
    Attachments                 : CINEMANIAHD.png

    Video
    ID                          : 1
    Format                      : AVC
    Format/Info                 : Advanced Video Codec
    Format profile              : High@L4.1
    Format settings             : CABAC / 4 Ref Frames
    Format settings, CABAC      : Yes
    Format settings, Reference  : 4 frames
    Codec ID                    : V_MPEG4/ISO/AVC
    Duration                    : 1 h 29 min
    Bit rate mode               : Constant
    Bit rate                    : 30.7 Mb/s
    Nominal bit rate            : 33.0 Mb/s
    Width                       : 1 920 pixels
    Height                      : 1 080 pixels
    Display aspect ratio        : 16:9
    Frame rate mode             : Constant
    Frame rate                  : 23.976 (24000/1001) FPS
    Color space                 : YUV
    Chroma subsampling          : 4:2:0
    Bit depth                   : 8 bits
    Scan type                   : Progressive
    Bits/(Pixel*Frame)          : 0.617
    Stream size                 : 19.2 GiB (91%)
    Title                       : REMUX HD1080p [CinemaniaHDD]
    Language                    : English
    Default                     : Yes
    Forced                      : Yes

    Audio #1
    ID                          : 2
    Format                      : AC-3
    Format/Info                 : Audio Coding 3
    Commercial name             : Dolby Digital
    Codec ID                    : A_AC3
    Duration                    : 1 h 29 min
    Bit rate mode               : Constant
    Bit rate                    : 256 kb/s
    Channel(s)                  : 2 channels
    Channel layout              : L R
    Sampling rate               : 48.0 kHz
    Frame rate                  : 31.250 FPS (1536 SPF)
    Compression mode            : Lossy
    Stream size                 : 164 MiB (1%)
    Title                       : Español Latino [CinemaniaHDD]
    Language                    : Spanish
    Service kind                : Complete Main
    Default                     : Yes
    Forced                      : Yes

    Audio #2
    ID                          : 3
    Format                      : DTS XLL
    Format/Info                 : Digital Theater Systems
    Commercial name             : DTS-HD Master Audio
    Codec ID                    : A_DTS
    Duration                    : 1 h 29 min
    Bit rate mode               : Variable
    Bit rate                    : 2 714 kb/s
    Channel(s)                  : 6 channels
    Channel layout              : C L R Ls Rs LFE
    Sampling rate               : 48.0 kHz
    Frame rate                  : 93.750 FPS (512 SPF)
    Bit depth                   : 24 bits
    Compression mode            : Lossless
    Stream size                 : 1.70 GiB (8%)
    Title                       : Ingles [CinemaniaHDD]
    Language                    : English
    Default                     : No
    Forced                      : No

    Text #1
    ID                          : 4
    Format                      : UTF-8
    Codec ID                    : S_TEXT/UTF8
    Codec ID/Info               : UTF-8 Plain Text
    Duration                    : 20 min 28 s
    Bit rate                    : 0 b/s
    Count of elements           : 3
    Stream size                 : 42.0 Bytes (0%)
    Title                       : Forzados-SRT [CinemaniaHDD]
    Language                    : Spanish
    Default                     : Yes
    Forced                      : Yes

    Text #2
    ID                          : 5
    Format                      : UTF-8
    Codec ID                    : S_TEXT/UTF8
    Codec ID/Info               : UTF-8 Plain Text
    Duration                    : 1 h 23 min
    Bit rate                    : 46 b/s
    Count of elements           : 944
    Stream size                 : 28.7 KiB (0%)
    Title                       : Español-SRT [CinemaniaHDD]
    Language                    : Spanish
    Default                     : No
    Forced                      : No

    Text #3
    ID                          : 6
    Format                      : PGS
    Muxing mode                 : zlib
    Codec ID                    : S_HDMV/PGS
    Codec ID/Info               : Picture based subtitle format used on BDs/HD-DVDs
    Duration                    : 1 h 28 min
    Bit rate                    : 35.6 kb/s
    Count of elements           : 2666
    Stream size                 : 22.5 MiB (0%)
    Title                       : Ingles [CinemaniaHDD]
    Language                    : English
    Default                     : No
    Forced                      : No

    Menu
    00:00:00.000                : Chapter 01
    00:09:28.777                : Chapter 02
    00:18:15.636                : Chapter 03
    00:26:34.468                : Chapter 04
    00:33:41.436                : Chapter 05
    00:41:31.322                : Chapter 06
    00:48:32.284                : Chapter 07
    00:52:09.793                : Chapter 08
    00:56:51.158                : Chapter 09
    01:05:27.799                : Chapter 10
    01:13:03.296                : Chapter 11
    01:24:06.416                : Chapter 12

  • Peso: 21.1 GiB

Sinopsis

Descargar Castle Falls (2021) REMUX 1080p Latino. Pandillas rivales buscan millones de dólares escondidos dentro de un condominio de lujo que está programado para ser demolido, pero primero tienen que lidiar con el tripulante de preparación de demolición que encontró el botín primero.

Ficha técnica

Video trailer de la película

Enlaces de descarga

Rip de Bluray

Descargar Castle Falls (2021) REMUX 1080p Latino




Aportes de DPeliculasHDmega la pass es:dpeliculashdmega.org Aportes de CinemaniaHD la pass es:cinemaniahdd.com
Guardado en : Acción , Remux , Suspenso

Películas relacionadas

descargar Castle Falls (2021) REMUX 1080p Latino Full 1080p 1080p gratis, Castle Falls (2021) REMUX 1080p Latino Full 1080p mega 1 link, Castle Falls (2021) REMUX 1080p Latino Full 1080p pelicula completa, descargar Castle Falls (2021) REMUX 1080p Latino Full 1080p gratis en mega.

Castle Falls (2021) REMUX 1080p Latino pelicula full hd, Castle Falls (2021) REMUX 1080p Latino mega latino, Castle Falls (2021) REMUX 1080p Latino 4k latino, Castle Falls (2021) REMUX 1080p Latino pelicula completa, Castle Falls (2021) REMUX 1080p Latino descargar gratis, descargar Castle Falls (2021) REMUX 1080p Latino pelicula latino, Castle Falls (2021) REMUX 1080p Latino 1 link mega, Castle Falls (2021) REMUX 1080p Latino 1 link google drive, Castle Falls (2021) REMUX 1080p Latino hd 1080p latino.
Comentarios 0