×

¿Problemas para descargar con Mozilla, EDGE? Deshabilita la opción "Abrir vinculos en una pestaña nueva" tal como lo muestra ésta imagen.

Caso Peligroso (2022) PLACEBO Full HD 1080p Latino

312 vistas

Información de Caso Peligroso (2022) PLACEBO Full HD 1080p Latino

Datos de la película

  • Calidad: Full 1080p
  • Audio: Español Latino AC3 5.1 WEB-DL - Ingles DTS 5.1 BLURAY
  • Subtitulos: Español Latino PGS - Ingles PGS
  • Resolución: 1920x1080p
  • Formato: MKV
  • Codec: H.264
  • Encoder: Melkor
  • Mediainfo: Clic para Mostrar Datos Ver
  • Caso Peligroso (2022) PLACEBO 1080p Latino.mkv
    Format                      : Matroska
    Format version              : Version 4
    File size                   : 4.03 GiB
    Duration                    : 1 h 31 min
    Overall bit rate            : 6 280 kb/s
    Movie name                  : Shattered (2022) CinemaniaHDD.Net
    Encoded date                : UTC 2023-03-28 22:38:10
    Writing application         : mkvmerge v56.1.0 ('My Friend') 64-bit
    Writing library             : libebml v1.4.2 + libmatroska v1.6.4
    Attachments                 : CINEMANIAHD.png
    Site                        : CinemaniaHDD.Net
    Uploader                    : Melkor

    Video
    ID                          : 1
    Format                      : AVC
    Format/Info                 : Advanced Video Codec
    Format profile              : High@L4.1
    Format settings             : CABAC / 4 Ref Frames
    Format settings, CABAC      : Yes
    Format settings, Reference  : 4 frames
    Codec ID                    : V_MPEG4/ISO/AVC
    Duration                    : 1 h 31 min
    Bit rate                    : 3 461 kb/s
    Width                       : 1 920 pixels
    Height                      : 1 080 pixels
    Display aspect ratio        : 16:9
    Frame rate mode             : Constant
    Frame rate                  : 23.976 (24000/1001) FPS
    Color space                 : YUV
    Chroma subsampling          : 4:2:0
    Bit depth                   : 8 bits
    Scan type                   : Progressive
    Bits/(Pixel*Frame)          : 0.070
    Stream size                 : 2.22 GiB (55%)
    Title                       : Full HD1080p [CinemaniaHDD]
    Writing library             : x264 core 163 r3059 b684ebe0
    Encoding settings           : cabac=1 / ref=4 / deblock=1:0:0 / analyse=0x3:0x133 / me=tesa / subme=11 / psy=1 / psy_rd=1.00:0.00 / mixed_ref=1 / me_range=24 / chroma_me=1 / trellis=2 / 8x8dct=1 / cqm=0 / deadzone=21,11 / fast_pskip=0 / chroma_qp_offset=-2 / threads=24 / lookahead_threads=6 / sliced_threads=0 / nr=0 / decimate=1 / interlaced=0 / bluray_compat=0 / constrained_intra=0 / bframes=16 / b_pyramid=2 / b_adapt=2 / b_bias=0 / direct=3 / weightb=1 / open_gop=0 / weightp=2 / keyint=240 / keyint_min=24 / scenecut=40 / intra_refresh=0 / rc_lookahead=60 / rc=crf / mbtree=1 / crf=19.0 / qcomp=0.60 / qpmin=0 / qpmax=69 / qpstep=4 / vbv_maxrate=62500 / vbv_bufsize=78125 / crf_max=0.0 / nal_hrd=none / filler=0 / ip_ratio=1.40 / aq=1:1.00
    Default                     : Yes
    Forced                      : Yes
    Color range                 : Limited
    Color primaries             : BT.709
    Transfer characteristics    : BT.709
    Matrix coefficients         : BT.709

    Audio #1
    ID                          : 2
    Format                      : AC-3
    Format/Info                 : Audio Coding 3
    Commercial name             : Dolby Digital
    Codec ID                    : A_AC3
    Duration                    : 1 h 31 min
    Bit rate mode               : Constant
    Bit rate                    : 640 kb/s
    Channel(s)                  : 6 channels
    Channel layout              : L R C LFE Ls Rs
    Sampling rate               : 48.0 kHz
    Frame rate                  : 31.250 FPS (1536 SPF)
    Compression mode            : Lossy
    Stream size                 : 420 MiB (10%)
    Title                       : Español Latino AC3 [CinemaniaHDD]
    Language                    : Spanish
    Service kind                : Complete Main
    Default                     : Yes
    Forced                      : Yes

    Audio #2
    ID                          : 3
    Format                      : E-AC-3
    Format/Info                 : Enhanced AC-3
    Commercial name             : Dolby Digital Plus
    Codec ID                    : A_EAC3
    Duration                    : 1 h 31 min
    Bit rate mode               : Constant
    Bit rate                    : 640 kb/s
    Channel(s)                  : 6 channels
    Channel layout              : L R C LFE Ls Rs
    Sampling rate               : 48.0 kHz
    Frame rate                  : 31.250 FPS (1536 SPF)
    Compression mode            : Lossy
    Stream size                 : 420 MiB (10%)
    Title                       : Español Latino EAC3 [CinemaniaHDD]
    Language                    : Spanish
    Service kind                : Complete Main
    Default                     : No
    Forced                      : No

    Audio #3
    ID                          : 4
    Format                      : DTS
    Format/Info                 : Digital Theater Systems
    Codec ID                    : A_DTS
    Duration                    : 1 h 31 min
    Bit rate mode               : Constant
    Bit rate                    : 1 509 kb/s
    Channel(s)                  : 6 channels
    Channel layout              : C L R Ls Rs LFE
    Sampling rate               : 48.0 kHz
    Frame rate                  : 93.750 FPS (512 SPF)
    Bit depth                   : 24 bits
    Compression mode            : Lossy
    Stream size                 : 991 MiB (24%)
    Title                       : Ingles [CinemaniaHDD]
    Language                    : English
    Default                     : No
    Forced                      : No

    Text #1
    ID                          : 5
    ID in the original source m : 4609 (0x1201)
    Format                      : PGS
    Muxing mode                 : zlib
    Codec ID                    : S_HDMV/PGS
    Codec ID/Info               : Picture based subtitle format used on BDs/HD-DVDs
    Duration                    : 1 h 29 min
    Bit rate                    : 24.3 kb/s
    Count of elements           : 1702
    Stream size                 : 15.6 MiB (0%)
    Title                       : Español-PGS [CinemaniaHDD]
    Language                    : Spanish
    Default                     : No
    Forced                      : No
    Original source medium      : Blu-ray

    Text #2
    ID                          : 6
    ID in the original source m : 4608 (0x1200)
    Format                      : PGS
    Muxing mode                 : zlib
    Codec ID                    : S_HDMV/PGS
    Codec ID/Info               : Picture based subtitle format used on BDs/HD-DVDs
    Duration                    : 1 h 25 min
    Bit rate                    : 28.6 kb/s
    Count of elements           : 1944
    Stream size                 : 17.6 MiB (0%)
    Title                       : Ingles-PGS [CinemaniaHDD]
    Language                    : English
    Default                     : No
    Forced                      : No
    Original source medium      : Blu-ray

    Text #3
    ID                          : 7
    Format                      : UTF-8
    Codec ID                    : S_TEXT/UTF8
    Codec ID/Info               : UTF-8 Plain Text
    Duration                    : 1 h 13 min
    Bit rate                    : 0 b/s
    Count of elements           : 5
    Stream size                 : 75.0 Bytes (0%)
    Title                       : Forzados-SRT [CinemaniaHDD]
    Language                    : Spanish
    Default                     : Yes
    Forced                      : Yes

    Text #4
    ID                          : 8
    Format                      : UTF-8
    Codec ID                    : S_TEXT/UTF8
    Codec ID/Info               : UTF-8 Plain Text
    Duration                    : 1 h 25 min
    Bit rate                    : 42 b/s
    Count of elements           : 868
    Stream size                 : 26.2 KiB (0%)
    Title                       : Español-SRT [CinemaniaHDD]
    Language                    : Spanish
    Default                     : No
    Forced                      : No

    Menu
    00:00:00.000                : Chapter 01
    00:03:36.382                : Chapter 02
    00:07:59.645                : Chapter 03
    00:13:57.837                : Chapter 04
    00:19:25.038                : Chapter 05
    00:25:14.429                : Chapter 06
    00:31:40.148                : Chapter 07
    00:34:54.383                : Chapter 08
    00:40:58.622                : Chapter 09
    00:45:38.360                : Chapter 10
    00:49:37.849                : Chapter 11
    00:56:35.266                : Chapter 12
    00:58:56.574                : Chapter 13
    01:08:55.965                : Chapter 14
    01:14:33.886                : Chapter 15
    01:20:12.474                : Chapter 16

  • Peso: 4.03 GiB

Sinopsis

Descargar Caso Peligroso (2022) PLACEBO Full HD 1080p Latino. Chris (Cameron Monaghan) se acaba de divorciar y vive en Montana, en una mansión en la montaña. Conoce a la imponente Sky (Lilly Krug) en un centro comercial de la zona y sienten una gran conexión. No obstante, Chris empieza a sospechar que algo no va bien cuando la compañera de piso de Sky aparece muerta. La verdad no tarda en salir a la luz: Sky es una estafadora que le ha tendido una trampa. Lo tenía todo pensado, incluso su encuentro ‘fortuito’ en el centro comercial. Chris se queda atrapado dentro su casa y cuando su exmujer Jamie y su hija Willow le visitan, acaban siendo víctimas del mismo engaño. Los tres tendrán que poner a trabajar su ingenio si quieren salir con vida de la mansión.

Ficha técnica

Video trailer de la película

Enlaces de descarga

Rip de Bluray

Descargar Caso Peligroso (2022) PLACEBO Full HD 1080p Latino




Aportes de DPeliculasHDmega la pass es:dpeliculashdmega.org Aportes de CinemaniaHD la pass es:cinemaniahdd.com Aportes recientes:cinemaniahdd.net

Películas relacionadas

  • Wanted Man (2024) HD 1080p Latino

    Wanted Man (2024) HD 1080p Latino

    2024
    Wanted Man (2024) HD 1080p Latino

    1h 25m 2024

    Descargar Wanted Man (2024) HD 1080p Latino. Sigue a un oficial de policía que debe recuperar a un testigo...

    Director: Kevin Leslie

    Género: Acción

    Actores: Xzavier Estrada

  • Wanted Man (2024) PLACEBO Full HD 1080p Latino

    Wanted Man (2024) PLACEBO Full HD 1080p Latino

    2024
    Wanted Man (2024) PLACEBO Full HD 1080p Latino

    1h 25m 2024

    Descargar Wanted Man (2024) PLACEBO Full HD 1080p Latino. Sigue a un oficial de policía que debe recuperar...

    Director: Kevin Leslie

    Género: Acción

    Actores: Xzavier Estrada

  • Wanted Man (2024) REMUX 1080p Latino

    Wanted Man (2024) REMUX 1080p Latino

    2024
    Wanted Man (2024) REMUX 1080p Latino

    1h 25m 2024

    Descargar Wanted Man (2024) REMUX 1080p Latino. Sigue a un oficial de policía que debe recuperar a un...

    Director: Kevin Leslie

    Género: Acción

    Actores: Xzavier Estrada

descargar Caso Peligroso (2022) PLACEBO Full HD 1080p Latino Full 1080p 1080p gratis, Caso Peligroso (2022) PLACEBO Full HD 1080p Latino Full 1080p mega 1 link, Caso Peligroso (2022) PLACEBO Full HD 1080p Latino Full 1080p pelicula completa, descargar Caso Peligroso (2022) PLACEBO Full HD 1080p Latino Full 1080p gratis en mega.

Caso Peligroso (2022) PLACEBO Full HD 1080p Latino pelicula full hd, Caso Peligroso (2022) PLACEBO Full HD 1080p Latino mega latino, Caso Peligroso (2022) PLACEBO Full HD 1080p Latino 4k latino, Caso Peligroso (2022) PLACEBO Full HD 1080p Latino pelicula completa, Caso Peligroso (2022) PLACEBO Full HD 1080p Latino descargar gratis, descargar Caso Peligroso (2022) PLACEBO Full HD 1080p Latino pelicula latino, Caso Peligroso (2022) PLACEBO Full HD 1080p Latino 1 link mega, Caso Peligroso (2022) PLACEBO Full HD 1080p Latino 1 link google drive, Caso Peligroso (2022) PLACEBO Full HD 1080p Latino hd 1080p latino.
Comentarios 0