×

¿Problemas para descargar con Mozilla, EDGE? Deshabilita la opción "Abrir vinculos en una pestaña nueva" tal como lo muestra ésta imagen.

Casino (1995) OPEN MATTE Full HD 1080p Latino

363 vistas

Información de Casino (1995) OPEN MATTE Full HD 1080p Latino

Datos de la película

  • Calidad: Full 1080p
  • Audio: Español Latino DTS 5.1 BLURAY - Ingles DTS 5.1 BLURAY
  • Subtitulos: Español Latino SRT - Ingles SRT
  • Resolución: 1920x1080p
  • Formato: MKV
  • Codec: H.264
  • Encoder: CinefiloCool
  • Mediainfo: Clic para Mostrar Datos Ver
  • Casino (1995) OPEN MATTE Full HD 1080p Latino-CMHDD.mkv
    Format                      : Matroska
    Format version              : Version 4
    File size                   : 33.7 GiB
    Duration                    : 2 h 58 min
    Overall bit rate            : 27.0 Mb/s
    Movie name                  : Casino (1995) CinemaniaHDD.Net
    Encoded date                : UTC 2020-11-22 08:05:29
    Writing application         : mkvmerge v51.0.0 ('I Wish') 64-bit
    Writing library             : libebml v1.4.0 + libmatroska v1.6.2
    Attachments                 : CINEMANIAHD.png

    Video
    ID                          : 1
    Format                      : AVC
    Format/Info                 : Advanced Video Codec
    Format profile              : High@L4.1
    Format settings             : CABAC / 4 Ref Frames
    Format settings, CABAC      : Yes
    Format settings, Reference  : 4 frames
    Codec ID                    : V_MPEG4/ISO/AVC
    Duration                    : 2 h 58 min
    Bit rate                    : 24.7 Mb/s
    Width                       : 1 920 pixels
    Height                      : 1 080 pixels
    Display aspect ratio        : 16:9
    Frame rate mode             : Constant
    Frame rate                  : 23.976 (24000/1001) FPS
    Color space                 : YUV
    Chroma subsampling          : 4:2:0
    Bit depth                   : 8 bits
    Scan type                   : Progressive
    Bits/(Pixel*Frame)          : 0.498
    Stream size                 : 30.8 GiB (92%)
    Title                       : Full HD1080p [CinemaniaHDD]
    Writing library             : x264 core 155 r2901 7d0ff22
    Encoding settings           : cabac=1 / ref=4 / deblock=1:-3:-3 / analyse=0x3:0x133 / me=umh / subme=11 / psy=1 / psy_rd=1.00:0.00 / mixed_ref=1 / me_range=32 / chroma_me=1 / trellis=2 / 8x8dct=1 / cqm=0 / deadzone=21,11 / fast_pskip=1 / chroma_qp_offset=-2 / threads=12 / lookahead_threads=1 / sliced_threads=0 / nr=0 / decimate=1 / interlaced=0 / bluray_compat=0 / constrained_intra=0 / bframes=8 / b_pyramid=2 / b_adapt=2 / b_bias=0 / direct=1 / weightb=1 / open_gop=0 / weightp=2 / keyint=240 / keyint_min=23 / scenecut=40 / intra_refresh=0 / rc_lookahead=40 / rc=crf / mbtree=0 / crf=17.0 / qcomp=0.60 / qpmin=0 / qpmax=69 / qpstep=4 / vbv_maxrate=50000 / vbv_bufsize=62500 / crf_max=0.0 / nal_hrd=none / filler=0 / ip_ratio=1.40 / pb_ratio=1.30 / aq=1:1.00
    Language                    : English
    Default                     : Yes
    Forced                      : No
    Color range                 : Limited
    Color primaries             : BT.709
    Transfer characteristics    : BT.709
    Matrix coefficients         : BT.709

    Audio #1
    ID                          : 2
    Format                      : DTS
    Format/Info                 : Digital Theater Systems
    Codec ID                    : A_DTS
    Duration                    : 2 h 58 min
    Bit rate mode               : Constant
    Bit rate                    : 768 kb/s
    Channel(s)                  : 6 channels
    Channel layout              : C L R Ls Rs LFE
    Sampling rate               : 48.0 kHz
    Frame rate                  : 93.750 FPS (512 SPF)
    Bit depth                   : 24 bits
    Compression mode            : Lossy
    Delay relative to video     : 1 s 10 ms
    Stream size                 : 980 MiB (3%)
    Title                       : Español Latino [CinemaniaHDD]
    Language                    : Spanish
    Default                     : Yes
    Forced                      : No

    Audio #2
    ID                          : 3
    Format                      : DTS
    Format/Info                 : Digital Theater Systems
    Codec ID                    : A_DTS
    Duration                    : 2 h 58 min
    Bit rate mode               : Constant
    Bit rate                    : 1 509 kb/s
    Channel(s)                  : 6 channels
    Channel layout              : C L R Ls Rs LFE
    Sampling rate               : 48.0 kHz
    Frame rate                  : 93.750 FPS (512 SPF)
    Bit depth                   : 24 bits
    Compression mode            : Lossy
    Stream size                 : 1.88 GiB (6%)
    Title                       : Ingles [CinemaniaHDD]
    Language                    : English
    Default                     : No
    Forced                      : No

    Text #1
    ID                          : 4
    Format                      : UTF-8
    Codec ID                    : S_TEXT/UTF8
    Codec ID/Info               : UTF-8 Plain Text
    Duration                    : 1 h 46 min
    Bit rate                    : 0 b/s
    Count of elements           : 11
    Stream size                 : 306 Bytes (0%)
    Title                       : Forzados-SRT [CinemaniaHDD]
    Language                    : Spanish
    Default                     : Yes
    Forced                      : No

    Text #2
    ID                          : 5
    Format                      : UTF-8
    Codec ID                    : S_TEXT/UTF8
    Codec ID/Info               : UTF-8 Plain Text
    Duration                    : 2 h 51 min
    Bit rate                    : 86 b/s
    Count of elements           : 2769
    Stream size                 : 109 KiB (0%)
    Title                       : Español-SRT [CinemaniaHDD]
    Language                    : Spanish
    Default                     : No
    Forced                      : No

    Text #3
    ID                          : 6
    Format                      : UTF-8
    Codec ID                    : S_TEXT/UTF8
    Codec ID/Info               : UTF-8 Plain Text
    Duration                    : 2 h 55 min
    Bit rate                    : 104 b/s
    Count of elements           : 3643
    Stream size                 : 134 KiB (0%)
    Title                       : Ingles-SRT [CinemaniaHDD]
    Language                    : English
    Default                     : No
    Forced                      : No

    Menu
    00:00:00.000                : en:00:00:00.000
    00:04:56.627                : en:00:04:55.627
    00:21:59.232                : en:00:21:58.232
    00:27:50.584                : en:00:27:49.584
    00:33:47.732                : en:00:33:46.732
    00:38:58.168                : en:00:38:57.168
    00:58:24.123                : en:00:58:23.123
    01:06:12.300                : en:01:06:11.300
    01:26:25.636                : en:01:26:24.636
    01:31:50.753                : en:01:31:49.753
    02:00:30.512                : en:02:00:29.512
    02:14:11.375                : en:02:14:10.375
    02:28:32.568                : en:02:28:31.568
    02:39:56.793                : en:02:39:55.793
    02:46:57.463                : en:02:46:56.463
    02:50:13.118                : en:02:50:12.118
    02:58:21.147                : en:02:58:20.147

  • Peso: 33.7 GiB

Sinopsis

Descargar Casino (1995) OPEN MATTE Full HD 1080p Latino. Las Vegas, 1973. Sam «Ace» Rothstein, un profesional de las apuestas, es el eficaz director de un importante casino que pertenece a un grupo de mafiosos. Su misión es controlar el funcionamiento del negocio y garantizar que la corriente de dinero que va a parar a manos de sus jefes siga fluyendo. Las Vegas es un lugar ideal para millonarios y políticos, pero es también lugar de paso de tahúres, prestamistas, traficantes de drogas y matones. Un día el violento Nicky Santoro, al que sus jefes han encargado que cuide de Sam, llega a Las Vegas con la intención de quedarse.

Ficha técnica

Video trailer de la película

Enlaces de descarga

Rip de Bluray

Descargar Casino (1995) OPEN MATTE Full HD 1080p Latino




Aportes de DPeliculasHDmega la pass es:dpeliculashdmega.org Aportes de CinemaniaHD la pass es:cinemaniahdd.com

Películas relacionadas

  • Zola (2020) HD 1080p Latino

    Zola (2020) HD 1080p Latino

    2020
    Zola (2020) HD 1080p Latino

    1h 26m 2020

    Descargar Zola (2020) HD 1080p Latino. Una camarera accede a acompañar a una bailarina exótica, su...

    Director: Sheri Davani

    Género: Comedia

    Actores: Ts Madison

  • Zola (2020) PLACEBO Full HD 1080p Latino

    Zola (2020) PLACEBO Full HD 1080p Latino

    2020
    Zola (2020) PLACEBO Full HD 1080p Latino

    1h 26m 2020

    Descargar Zola (2020) PLACEBO Full HD 1080p Latino. Una camarera accede a acompañar a una bailarina...

    Director: Sheri Davani

    Género: Comedia

    Actores: Ts Madison

  • Zola (2020) REMUX 1080p Latino

    Zola (2020) REMUX 1080p Latino

    2020
    Zola (2020) REMUX 1080p Latino

    1h 26m 2020

    Descargar Zola (2020) REMUX 1080p Latino. Una camarera accede a acompañar a una bailarina exótica,...

    Director: Sheri Davani

    Género: Comedia

    Actores: Ts Madison

  • Togo (2022) NF WEB-DL 1080p Latino

    Togo (2022) NF WEB-DL 1080p Latino

    2022
    Togo (2022) NF WEB-DL 1080p Latino

    1h 35m 2022

    Descargar Togo (2022) NF WEB-DL 1080p Latino. Los narcos de poca monta están copando las calles de Montevideo...

    Director: Adrián Caetano

    Género: Crimen

    Actores: Tito Prieto

descargar Casino (1995) OPEN MATTE Full HD 1080p Latino Full 1080p 1080p gratis, Casino (1995) OPEN MATTE Full HD 1080p Latino Full 1080p mega 1 link, Casino (1995) OPEN MATTE Full HD 1080p Latino Full 1080p pelicula completa, descargar Casino (1995) OPEN MATTE Full HD 1080p Latino Full 1080p gratis en mega.

Casino (1995) OPEN MATTE Full HD 1080p Latino pelicula full hd, Casino (1995) OPEN MATTE Full HD 1080p Latino mega latino, Casino (1995) OPEN MATTE Full HD 1080p Latino 4k latino, Casino (1995) OPEN MATTE Full HD 1080p Latino pelicula completa, Casino (1995) OPEN MATTE Full HD 1080p Latino descargar gratis, descargar Casino (1995) OPEN MATTE Full HD 1080p Latino pelicula latino, Casino (1995) OPEN MATTE Full HD 1080p Latino 1 link mega, Casino (1995) OPEN MATTE Full HD 1080p Latino 1 link google drive, Casino (1995) OPEN MATTE Full HD 1080p Latino hd 1080p latino.
Comentarios 0