×

¿Problemas para descargar con Mozilla, EDGE? Deshabilita la opción "Abrir vinculos en una pestaña nueva" tal como lo muestra ésta imagen.

Cásate conmigo (2022) REMUX 1080p Latino

265 vistas

Información de Cásate conmigo (2022) REMUX 1080p Latino

Datos de la película

  • Calidad: Full 1080p
  • Audio: Español Latino DTS 5.1 BLURAY - Ingles DTS-HD 5.1 BLURAY
  • Subtitulos: Español Latino PGS - Ingles PGS
  • Resolución: 1920x1080p
  • Formato: MKV
  • Codec: H.264
  • Encoder: Melkor
  • Mediainfo: Clic para Mostrar Datos Ver
  • Casate Conmigo (2022) REMUX 1080p Latino.mkv
    Format                      : Matroska
    Format version              : Version 4
    File size                   : 28.7 GiB
    Duration                    : 1 h 52 min
    Overall bit rate mode       : Variable
    Overall bit rate            : 36.7 Mb/s
    Movie name                  : Marry Me (2022) CinemaniaHDD.Net
    Encoded date                : UTC 2022-03-26 06:54:58
    Writing application         : mkvmerge v56.1.0 ('My Friend') 64-bit
    Writing library             : libebml v1.4.2 + libmatroska v1.6.4
    Attachments                 : CINEMANIAHD.png

    Video
    ID                          : 1
    ID in the original source m : 4113 (0x1011)
    Format                      : AVC
    Format/Info                 : Advanced Video Codec
    Format profile              : High@L4.1
    Format settings             : CABAC / 4 Ref Frames
    Format settings, CABAC      : Yes
    Format settings, Reference  : 4 frames
    Codec ID                    : V_MPEG4/ISO/AVC
    Duration                    : 1 h 52 min
    Bit rate mode               : Variable
    Bit rate                    : 32.2 Mb/s
    Maximum bit rate            : 35.0 Mb/s
    Width                       : 1 920 pixels
    Height                      : 1 080 pixels
    Display aspect ratio        : 16:9
    Frame rate mode             : Constant
    Frame rate                  : 23.976 (24000/1001) FPS
    Color space                 : YUV
    Chroma subsampling          : 4:2:0
    Bit depth                   : 8 bits
    Scan type                   : Progressive
    Bits/(Pixel*Frame)          : 0.647
    Stream size                 : 25.2 GiB (88%)
    Title                       : REMUX HD1080p [CinemaniaHDD]
    Default                     : Yes
    Forced                      : Yes
    Original source medium      : Blu-ray

    Audio #1
    ID                          : 2
    ID in the original source m : 4353 (0x1101)
    Format                      : DTS
    Format/Info                 : Digital Theater Systems
    Codec ID                    : A_DTS
    Duration                    : 1 h 52 min
    Bit rate mode               : Constant
    Bit rate                    : 768 kb/s
    Channel(s)                  : 6 channels
    Channel layout              : C L R Ls Rs LFE
    Sampling rate               : 48.0 kHz
    Frame rate                  : 93.750 FPS (512 SPF)
    Bit depth                   : 24 bits
    Compression mode            : Lossy
    Stream size                 : 616 MiB (2%)
    Title                       : Español Latino [CinemaniaHDD]
    Language                    : Spanish
    Default                     : Yes
    Forced                      : Yes
    Original source medium      : Blu-ray

    Audio #2
    ID                          : 3
    ID in the original source m : 4352 (0x1100)
    Format                      : DTS XLL
    Format/Info                 : Digital Theater Systems
    Commercial name             : DTS-HD Master Audio
    Codec ID                    : A_DTS
    Duration                    : 1 h 52 min
    Bit rate mode               : Variable
    Bit rate                    : 3 696 kb/s
    Channel(s)                  : 6 channels
    Channel layout              : C L R Ls Rs LFE
    Sampling rate               : 48.0 kHz
    Frame rate                  : 93.750 FPS (512 SPF)
    Bit depth                   : 24 bits
    Compression mode            : Lossless
    Stream size                 : 2.89 GiB (10%)
    Title                       : Ingles [CinemaniaHDD]
    Language                    : English
    Default                     : No
    Forced                      : No
    Original source medium      : Blu-ray

    Text #1
    ID                          : 4
    ID in the original source m : 4611 (0x1203)
    Format                      : PGS
    Muxing mode                 : zlib
    Codec ID                    : S_HDMV/PGS
    Codec ID/Info               : Picture based subtitle format used on BDs/HD-DVDs
    Duration                    : 1 h 50 min
    Bit rate                    : 5 218 b/s
    Count of elements           : 437
    Stream size                 : 4.14 MiB (0%)
    Title                       : Forzados-PGS [CinemaniaHDD]
    Language                    : Spanish
    Default                     : No
    Forced                      : No
    Original source medium      : Blu-ray

    Text #2
    ID                          : 5
    ID in the original source m : 4609 (0x1201)
    Format                      : PGS
    Muxing mode                 : zlib
    Codec ID                    : S_HDMV/PGS
    Codec ID/Info               : Picture based subtitle format used on BDs/HD-DVDs
    Duration                    : 1 h 51 min
    Bit rate                    : 44.7 kb/s
    Count of elements           : 4001
    Stream size                 : 35.7 MiB (0%)
    Title                       : Español-PGS [CinemaniaHDD]
    Language                    : Spanish
    Default                     : No
    Forced                      : No
    Original source medium      : Blu-ray

    Text #3
    ID                          : 6
    ID in the original source m : 4608 (0x1200)
    Format                      : PGS
    Muxing mode                 : zlib
    Codec ID                    : S_HDMV/PGS
    Codec ID/Info               : Picture based subtitle format used on BDs/HD-DVDs
    Duration                    : 1 h 51 min
    Bit rate                    : 60.2 kb/s
    Count of elements           : 4861
    Stream size                 : 48.0 MiB (0%)
    Title                       : Ingles-PGS [CinemaniaHDD]
    Language                    : English
    Default                     : No
    Forced                      : No
    Original source medium      : Blu-ray

    Text #4
    ID                          : 7
    Format                      : UTF-8
    Codec ID                    : S_TEXT/UTF8
    Codec ID/Info               : UTF-8 Plain Text
    Duration                    : 1 h 44 min
    Bit rate                    : 9 b/s
    Count of elements           : 217
    Stream size                 : 7.57 KiB (0%)
    Title                       : Forzados-SRT [CinemaniaHDD]
    Language                    : Spanish
    Default                     : Yes
    Forced                      : Yes

    Text #5
    ID                          : 8
    Format                      : UTF-8
    Codec ID                    : S_TEXT/UTF8
    Codec ID/Info               : UTF-8 Plain Text
    Duration                    : 1 h 46 min
    Bit rate                    : 76 b/s
    Count of elements           : 1984
    Stream size                 : 59.5 KiB (0%)
    Title                       : Español-SRT [CinemaniaHDD]
    Language                    : Spanish
    Default                     : No
    Forced                      : No

    Menu
    00:00:00.000                : Chapter 01
    00:03:10.773                : Chapter 02
    00:10:40.264                : Chapter 03
    00:15:43.275                : Chapter 04
    00:21:57.524                : Chapter 05
    00:25:52.676                : Chapter 06
    00:33:25.670                : Chapter 07
    00:40:23.754                : Chapter 08
    00:46:05.554                : Chapter 09
    00:50:29.943                : Chapter 10
    00:58:57.450                : Chapter 11
    01:04:45.965                : Chapter 12
    01:11:17.606                : Chapter 13
    01:15:31.902                : Chapter 14
    01:18:53.937                : Chapter 15
    01:26:40.695                : Chapter 16
    01:32:44.767                : Chapter 17
    01:36:59.104                : Chapter 18
    01:40:10.421                : Chapter 19
    01:45:06.383                : Chapter 20

  • Peso: 28.7 GiB

Sinopsis

Descargar Cásate conmigo (2022) REMUX 1080p Latino. Una estrella del pop es abandonada por su prometido, una estrella del rock, momentos antes de su boda en el Madison Square Garden, por lo que decide casarse con un hombre que selecciona aleatoriamente entre el público.

Ficha técnica

Video trailer de la película

Enlaces de descarga

Rip de Bluray

Descargar Cásate conmigo (2022) REMUX 1080p Latino




Aportes de DPeliculasHDmega la pass es:dpeliculashdmega.org Aportes de CinemaniaHD la pass es:cinemaniahdd.com
Guardado en : Comedia , Música , Remux , Romance

Películas relacionadas

  • DC Liga De Supermascotas (2022) HD 1080p Latino

    DC Liga De Supermascotas (2022) HD 1080p Latino

    2022
    DC Liga De Supermascotas (2022) HD 1080p Latino

    1h 45m 2022

    Descargar DC Liga De Supermascotas (2022) HD 1080p Latino. Krypto el Superperro y Superman son amigos...

    Director: Sam Levine

    Género: Acción

    Actores: Yvette Nicole Brown

  • Rick and Morty (2022) Temporada 6 WEB-DL 1080p Latino

    Rick and Morty (2022) Temporada 6 WEB-DL 1080p Latino

    2013
    Rick and Morty (2022) Temporada 6 WEB-DL 1080p Latino

    0h 22m 2013

    Comedia animada que narra las aventuras de un científico loco Rick Sánchez, que regresa después de...

    Director: Justin Roiland

    Género: Action & Adventure

    Actores: Spencer Grammer

  • Tremors (1990) REMUX 4K HDR Latino – CMHDD

    Tremors (1990) REMUX 4K HDR Latino – CMHDD

    1990
    Tremors (1990) REMUX 4K HDR Latino – CMHDD

    1h 35m 1990

    En Perfección, un pequeño pueblo al borde del desierto de Nevada, algo parece suceder debajo de la...

    Director: Susan Bierbaum

    Género: Acción

    Actores: Victor Wong

descargar Cásate conmigo (2022) REMUX 1080p Latino Full 1080p 1080p gratis, Cásate conmigo (2022) REMUX 1080p Latino Full 1080p mega 1 link, Cásate conmigo (2022) REMUX 1080p Latino Full 1080p pelicula completa, descargar Cásate conmigo (2022) REMUX 1080p Latino Full 1080p gratis en mega.

Cásate conmigo (2022) REMUX 1080p Latino pelicula full hd, Cásate conmigo (2022) REMUX 1080p Latino mega latino, Cásate conmigo (2022) REMUX 1080p Latino 4k latino, Cásate conmigo (2022) REMUX 1080p Latino pelicula completa, Cásate conmigo (2022) REMUX 1080p Latino descargar gratis, descargar Cásate conmigo (2022) REMUX 1080p Latino pelicula latino, Cásate conmigo (2022) REMUX 1080p Latino 1 link mega, Cásate conmigo (2022) REMUX 1080p Latino 1 link google drive, Cásate conmigo (2022) REMUX 1080p Latino hd 1080p latino.
Comentarios 0