×

¿Problemas para descargar con Mozilla, EDGE? Deshabilita la opción "Abrir vinculos en una pestaña nueva" tal como lo muestra ésta imagen.

Cars 3 (2017) REMUX 4K HDR Latino – CMHDD

333 vistas

Información de Cars 3 (2017) REMUX 4K HDR Latino – CMHDD

Datos de la película

  • Calidad: Full 1080p
  • Audio: Se especifica abajo de la Sinopsis
  • Subtitulos: Español Latino PGS
  • Resolución: 3840x2160p
  • Formato: MKV
  • Codec: H.264
  • Encoder: Dracarys
  • Mediainfo: Clic para Mostrar Datos Ver
  • Format                      : Matroska
    Format version              : Version 4
    File size                   : 36.5 GiB
    Duration                    : 1 h 42 min
    Overall bit rate mode       : Variable
    Overall bit rate            : 51.0 Mb/s
    Movie name                  : Cars 3 (2017) REMUX 4K HDR Latino - CMHDD
    Encoded date                : UTC 2021-03-14 04:12:46
    Writing application         : mkvmerge v51.0.0 ('I Wish') 64-bit
    Writing library             : libebml v1.4.0 + libmatroska v1.6.2
    Cover                       : Yes
    Attachments                 : cover.jpg

    Video
    ID                          : 1
    Format                      : HEVC
    Format/Info                 : High Efficiency Video Coding
    Format profile              : Main 10@L5.1@High
    HDR format                  : SMPTE ST 2086, HDR10 compatible
    Codec ID                    : V_MPEGH/ISO/HEVC
    Duration                    : 1 h 42 min
    Bit rate                    : 44.0 Mb/s
    Width                       : 3 840 pixels
    Height                      : 2 160 pixels
    Display aspect ratio        : 16:9
    Frame rate mode             : Constant
    Frame rate                  : 23.976 (23976/1000) FPS
    Original frame rate         : 23.976 (24000/1001) FPS
    Color space                 : YUV
    Chroma subsampling          : 4:2:0 (Type 2)
    Bit depth                   : 10 bits
    Bits/(Pixel*Frame)          : 0.221
    Stream size                 : 31.4 GiB (86%)
    Writing library             : ATEME Titan File 3.8.3 (4.8.3.0)        
    Default                     : Yes
    Forced                      : No
    Color range                 : Limited
    Color primaries             : BT.2020
    Transfer characteristics    : PQ
    Matrix coefficients         : BT.2020 non-constant
    Mastering display color pri : Display P3
    Mastering display luminance : min: 0.0000 cd/m2, max: 1000 cd/m2

    Audio #1
    ID                          : 2
    Format                      : E-AC-3
    Format/Info                 : Enhanced AC-3
    Commercial name             : Dolby Digital Plus
    Format profile              : Blu-ray Disc
    Codec ID                    : A_EAC3
    Duration                    : 1 h 42 min
    Bit rate mode               : Constant
    Bit rate                    : 1 024 kb/s
    Channel(s)                  : 8 channels
    Channel layout              : L R C LFE Ls Rs Lb Rb
    Sampling rate               : 48.0 kHz
    Frame rate                  : 31.250 FPS (1536 SPF)
    Compression mode            : Lossy
    Stream size                 : 750 MiB (2%)
    Language                    : Spanish
    Service kind                : Complete Main
    Default                     : Yes
    Forced                      : No

    Audio #2
    ID                          : 3
    Format                      : MLP FBA 16-ch
    Format/Info                 : Meridian Lossless Packing FBA with 16-channel presentation
    Commercial name             : Dolby TrueHD with Dolby Atmos
    Codec ID                    : A_TRUEHD
    Duration                    : 1 h 42 min
    Bit rate mode               : Variable
    Bit rate                    : 4 895 kb/s
    Maximum bit rate            : 6 966 kb/s
    Channel(s)                  : 8 channels
    Channel layout              : L R C LFE Ls Rs Lb Rb
    Sampling rate               : 48.0 kHz
    Frame rate                  : 1 200.000 FPS (40 SPF)
    Compression mode            : Lossless
    Stream size                 : 3.50 GiB (10%)
    Language                    : English
    Default                     : No
    Forced                      : No
    Number of dynamic objects   : 13
    Bed channel count           : 1 channel
    Bed channel configuration   : LFE

    Audio #3
    ID                          : 4
    Format                      : E-AC-3
    Format/Info                 : Enhanced AC-3
    Commercial name             : Dolby Digital Plus
    Format profile              : Blu-ray Disc
    Codec ID                    : A_EAC3
    Duration                    : 1 h 42 min
    Bit rate mode               : Constant
    Bit rate                    : 1 024 kb/s
    Channel(s)                  : 8 channels
    Channel layout              : L R C LFE Ls Rs Lb Rb
    Sampling rate               : 48.0 kHz
    Frame rate                  : 31.250 FPS (1536 SPF)
    Compression mode            : Lossy
    Stream size                 : 750 MiB (2%)
    Language                    : English
    Service kind                : Complete Main
    Default                     : No
    Forced                      : No

    Text
    ID                          : 5
    Format                      : PGS
    Muxing mode                 : zlib
    Codec ID                    : S_HDMV/PGS
    Codec ID/Info               : Picture based subtitle format used on BDs/HD-DVDs
    Duration                    : 1 h 40 min
    Bit rate                    : 48.7 kb/s
    Count of elements           : 2878
    Stream size                 : 35.1 MiB (0%)
    Language                    : Spanish
    Default                     : No
    Forced                      : No

    Menu
    00:00:00.000                : en:Chapter 01
    00:04:57.255                : en:Chapter 02
    00:10:54.987                : en:Chapter 03
    00:13:59.421                : en:Chapter 04
    00:18:15.344                : en:Chapter 05
    00:21:07.641                : en:Chapter 06
    00:34:08.879                : en:Chapter 07
    00:37:52.102                : en:Chapter 08
    00:42:44.812                : en:Chapter 09
    00:49:44.397                : en:Chapter 10
    00:53:57.734                : en:Chapter 11
    00:58:17.702                : en:Chapter 12
    00:59:27.521                : en:Chapter 13
    01:02:15.940                : en:Chapter 14
    01:06:35.532                : en:Chapter 15
    01:08:33.108                : en:Chapter 16
    01:15:48.126                : en:Chapter 17
    01:20:57.852                : en:Chapter 18
    01:29:42.418                : en:Chapter 19
    01:32:17.030                : en:Chapter 20
    01:34:00.092                : en:Chapter 21

  • Peso: 36.5 GiB

Sinopsis

Rayo McQueen sigue siendo el mejor coche de carreras del mundo, pero ahora que es uno de los más veteranos del circuito, debe demostrar a todo el mundo que aún puede ganar una gran carrera y que no necesita jubilarse. En esta ocasión, el famoso bólido de carreras tendrá que enfrentarse a una nueva generación de corredores más jóvenes, potentes y veloces, que amenaza con cambiar el deporte de su vida. Entre ellos está el competitivo y revolucionario Jackson Storm, que no se lo pondrá nada fácil.

 

Latino: E-AC3 7.1  –  Ingles: TrueHD + E-AC3 7.1

Ficha técnica

Video trailer de la película

Enlaces de descarga

Rip de Bluray

Descargar Cars 3 (2017) REMUX 4K HDR Latino – CMHDD


Aportes de DPeliculasHDmega la pass es:dpeliculashdmega.org Aportes de CinemaniaHD la pass es:cinemaniahdd.com
Guardado en : Animación , Aventura , Comedia , Drama

Películas relacionadas

  • Willow (2022) Temporada 1 WEB-DL 1080p Latino

    Willow (2022) Temporada 1 WEB-DL 1080p Latino

    2022
    Willow (2022) Temporada 1 WEB-DL 1080p Latino

    0h 0m 2022

    Descargar Willow (2022) Temporada 1 WEB-DL 1080p Latino. Veinte años después de vencer a la reina Bavmorda,...

    Género: Action & Adventure

    Actores: Warwick Davis

  • Quantum Leap (2022) Temporada 1 WEB-DL 1080p Latino

    Quantum Leap (2022) Temporada 1 WEB-DL 1080p Latino

    2022
    Quantum Leap (2022) Temporada 1 WEB-DL 1080p Latino

    0h 43m 2022

    Han pasado 27 años desde que el Dr. Sam Beckett pisó el acelerador Quantum Leap y desapareció. Ahora...

    Director: Donald P. Bellisario

    Género: Drama

    Actores: Raymond Lee

  • Shrek 2 (2004) REMUX 4K HDR Latino – CMHDD

    Shrek 2 (2004) REMUX 4K HDR Latino – CMHDD

    2004
    Shrek 2 (2004) REMUX 4K HDR Latino – CMHDD

    1h 32m 2004

    Cuando Shrek y la princesa Fiona regresan de su luna de miel, los padres de ella los invitan a visitar...

    Director: Matt Aspbury

    Género: Animación

    Actores: Wendy Bilanski

descargar Cars 3 (2017) REMUX 4K HDR Latino – CMHDD Full 1080p 1080p gratis, Cars 3 (2017) REMUX 4K HDR Latino – CMHDD Full 1080p mega 1 link, Cars 3 (2017) REMUX 4K HDR Latino – CMHDD Full 1080p pelicula completa, descargar Cars 3 (2017) REMUX 4K HDR Latino – CMHDD Full 1080p gratis en mega.

Cars 3 (2017) REMUX 4K HDR Latino – CMHDD pelicula full hd, Cars 3 (2017) REMUX 4K HDR Latino – CMHDD mega latino, Cars 3 (2017) REMUX 4K HDR Latino – CMHDD 4k latino, Cars 3 (2017) REMUX 4K HDR Latino – CMHDD pelicula completa, Cars 3 (2017) REMUX 4K HDR Latino – CMHDD descargar gratis, descargar Cars 3 (2017) REMUX 4K HDR Latino – CMHDD pelicula latino, Cars 3 (2017) REMUX 4K HDR Latino – CMHDD 1 link mega, Cars 3 (2017) REMUX 4K HDR Latino – CMHDD 1 link google drive, Cars 3 (2017) REMUX 4K HDR Latino – CMHDD hd 1080p latino.
Comentarios 0