Cars 3 (2017) 4K HDR Latino

2.666 vistas
1 estrella2 estrellas3 estrellas4 estrellas5 estrellas (Ninguna valoración todavía)
Cargando…

Información de Cars 3 (2017) 4K HDR Latino

Datos de la película

  • Calidad: 4K HDR
  • Audio: Español Latino AC3 5.1 BLURAY - Ingles AC3 5.1 BLURAY
  • Subtitulos: Español Latino PGS - Ingles PGS
  • Resolución: 3840x1608p
  • Formato: MKV
  • Codec: H.265
  • Encoder: Dracarys
  • Mediainfo: Clic para Mostrar Datos Ver
  • Format                                   : Matroska
    Format version                           : Version 4 / Version 2
    File size                                : 9.07 GiB
    Duration                                 : 1 h 42 min
    Overall bit rate                         : 12.7 Mb/s
    Movie name                               : CinemaniaHDD.com
    Encoded date                             : UTC 2018-03-09 01:40:40
    Writing application                      : mkvmerge v15.0.0 ('Duel with the Devil') 64-bit
    Writing library                          : libebml v1.3.5 + libmatroska v1.4.5

    Video
    ID                                       : 1
    Format                                   : HEVC
    Format/Info                              : High Efficiency Video Coding
    Format profile                           : Main [email protected]@High
    Codec ID                                 : V_MPEGH/ISO/HEVC
    Duration                                 : 1 h 42 min
    Bit rate                                 : 11.4 Mb/s
    Width                                    : 3 840 pixels
    Height                                   : 1 608 pixels
    Display aspect ratio                     : 2.40:1
    Frame rate mode                          : Constant
    Frame rate                               : 23.976 (24000/1001) FPS
    Color space                              : YUV
    Chroma subsampling                       : 4:2:0 (Type 2)
    Bit depth                                : 10 bits
    Bits/(Pixel*Frame)                       : 0.077
    Stream size                              : 8.13 GiB (90%)
    Title                                    : Cars 3 (2017) 4K HDR Larino
    Writing library                          : x265 2.5+58-06979c042350:[Windows][GCC 6.2.1][64 bit] 10bit
    Encoding settings                        : cpuid=1173503 / frame-threads=4 / numa-pools=16 / wpp / no-pmode / no-pme / no-psnr / no-ssim / log-level=2 / input-csp=1 / input-res=3840x1608 / interlace=0 / total-frames=147333 / level-idc=51 / high-tier=1 / uhd-bd=0 / ref=4 / no-allow-non-conformance / repeat-headers / annexb / aud / hrd / info / hash=0 / no-temporal-layers / no-open-gop / min-keyint=1 / keyint=24 / bframes=4 / b-adapt=2 / b-pyramid / bframe-bias=0 / rc-lookahead=25 / lookahead-slices=4 / scenecut=40 / no-intra-refresh / ctu=64 / min-cu-size=8 / rect / no-amp / max-tu-size=32 / tu-inter-depth=1 / tu-intra-depth=1 / limit-tu=0 / rdoq-level=2 / dynamic-rd=0.00 / no-ssim-rd / signhide / no-tskip / nr-intra=0 / nr-inter=0 / no-constrained-intra / no-strong-intra-smoothing / max-merge=3 / limit-refs=3 / limit-modes / me=3 / subme=3 / merange=57 / temporal-mvp / weightp / no-weightb / no-analyze-src-pics / deblock=-3:-3 / no-sao / no-sao-non-deblock / rd=4 / no-early-skip / rskip / no-fast-intra / no-tskip-fast / no-cu-lossless / no-b-intra / no-splitrd-skip / rdpenalty=0 / psy-rd=2.00 / psy-rdoq=1.00 / no-rd-refine / analysis-reuse-mode=0 / no-lossless / cbqpoffs=0 / crqpoffs=0 / rc=crf / crf=17.0 / qcomp=0.60 / qpstep=4 / stats-write=0 / stats-read=0 / vbv-maxrate=160000 / vbv-bufsize=160000 / vbv-init=0.9 / crf-max=0.0 / crf-min=0.0 / ipratio=1.40 / pbratio=1.30 / aq-mode=1 / aq-strength=1.00 / cutree / zone-count=0 / no-strict-cbr / qg-size=32 / no-rc-grain / qpmax=69 / qpmin=0 / no-const-vbv / sar=1 / overscan=0 / videoformat=5 / range=0 / colorprim=9 / transfer=16 / colormatrix=9 / chromaloc=1 / chromaloc-top=2 / chromaloc-bottom=2 / display-window=0 / master-display=G(13250,34500)B(7500,3000)R(34000,16000)WP(15635,16450)L(10000000,0) / max-cll=0,0 / min-luma=0 / max-luma=1023 / log2-max-poc-lsb=8 / vui-timing-info / vui-hrd-info / slices=1 / no-opt-qp-pps / no-opt-ref-list-length-pps / no-multi-pass-opt-rps / scenecut-bias=0.05 / no-opt-cu-delta-qp / no-aq-motion / hdr / hdr-opt / no-dhdr10-opt / analysis-reuse-level=5 / scale-factor=0 / refine-intra=0 / refine-inter=0 / refine-mv=0 / no-limit-sao / ctu-info=0 / no-lowpass-dct / refine-mv-type=0 / copy-pic=1
    Language                                 : English
    Default                                  : Yes
    Forced                                   : No
    Color range                              : Limited
    Color primaries                          : BT.2020
    Transfer characteristics                 : PQ
    Matrix coefficients                      : BT.2020 non-constant
    Mastering display color primaries        : R: x=0.680000 y=0.320000, G: x=0.265000 y=0.690000, B: x=0.150000 y=0.060000, White point: x=0.312700 y=0.329000
    Mastering display luminance              : min: 0.0000 cd/m2, max: 1000.0000 cd/m2

    Audio #1
    ID                                       : 2
    Format                                   : AC-3
    Format/Info                              : Audio Coding 3
    Format settings, Endianness              : Big
    Codec ID                                 : A_AC3
    Duration                                 : 1 h 42 min
    Bit rate mode                            : Constant
    Bit rate                                 : 640 kb/s
    Channel(s)                               : 6 channels
    Channel positions                        : Front: L C R, Side: L R, LFE
    Sampling rate                            : 48.0 kHz
    Frame rate                               : 31.250 FPS (1536 SPF)
    Bit depth                                : 16 bits
    Compression mode                         : Lossy
    Stream size                              : 469 MiB (5%)
    Title                                    : Latino
    Language                                 : Spanish
    Service kind                             : Complete Main
    Default                                  : Yes
    Forced                                   : No

    Audio #2
    ID                                       : 3
    Format                                   : AC-3
    Format/Info                              : Audio Coding 3
    Format settings, Endianness              : Big
    Codec ID                                 : A_AC3
    Duration                                 : 1 h 42 min
    Bit rate mode                            : Constant
    Bit rate                                 : 640 kb/s
    Channel(s)                               : 6 channels
    Channel positions                        : Front: L C R, Side: L R, LFE
    Sampling rate                            : 48.0 kHz
    Frame rate                               : 31.250 FPS (1536 SPF)
    Bit depth                                : 16 bits
    Compression mode                         : Lossy
    Stream size                              : 469 MiB (5%)
    Title                                    : English
    Language                                 : English
    Service kind                             : Complete Main
    Default                                  : No
    Forced                                   : No

    Text #1
    ID                                       : 4
    Format                                   : UTF-8
    Codec ID                                 : S_TEXT/UTF8
    Codec ID/Info                            : UTF-8 Plain Text
    Duration                                 : 1 h 30 min
    Bit rate                                 : 0 b/s
    Count of elements                        : 17
    Stream size                              : 640 Bytes (0%)
    Title                                    : Forzados
    Language                                 : Spanish
    Default                                  : Yes
    Forced                                   : No

    Text #2
    ID                                       : 5
    Format                                   : UTF-8
    Codec ID                                 : S_TEXT/UTF8
    Codec ID/Info                            : UTF-8 Plain Text
    Duration                                 : 1 h 40 min
    Bit rate                                 : 82 b/s
    Count of elements                        : 1438
    Stream size                              : 60.6 KiB (0%)
    Language                                 : Spanish
    Default                                  : No
    Forced                                   : No

    Text #3
    ID                                       : 6
    Format                                   : UTF-8
    Codec ID                                 : S_TEXT/UTF8
    Codec ID/Info                            : UTF-8 Plain Text
    Duration                                 : 1 h 40 min
    Bit rate                                 : 91 b/s
    Count of elements                        : 1929
    Stream size                              : 67.3 KiB (0%)
    Language                                 : English
    Default                                  : No
    Forced                                   : No

    Text #4
    ID                                       : 7
    Format                                   : PGS
    Muxing mode                              : zlib
    Codec ID                                 : S_HDMV/PGS
    Codec ID/Info                            : Picture based subtitle format used on BDs/HD-DVDs
    Duration                                 : 1 h 40 min
    Bit rate                                 : 48.7 kb/s
    Count of elements                        : 2878
    Stream size                              : 35.1 MiB (0%)
    Language                                 : Spanish
    Default                                  : No
    Forced                                   : No

    Text #5
    ID                                       : 8
    Format                                   : PGS
    Muxing mode                              : zlib
    Codec ID                                 : S_HDMV/PGS
    Codec ID/Info                            : Picture based subtitle format used on BDs/HD-DVDs
    Duration                                 : 1 h 40 min
    Bit rate                                 : 57.0 kb/s
    Count of elements                        : 3860
    Stream size                              : 41.1 MiB (0%)
    Title                                    : SDH
    Language                                 : English
    Default                                  : No
    Forced                                   : No

    Menu
    00:00:00.000                             : :Chapter 01
    00:05:00.000                             : :Chapter 02
    00:10:00.000                             : :Chapter 03
    00:15:00.000                             : :Chapter 04
    00:20:00.000                             : :Chapter 05
    00:25:00.000                             : :Chapter 06
    00:30:00.000                             : :Chapter 07
    00:35:00.000                             : :Chapter 08
    00:40:00.000                             : :Chapter 09
    00:45:00.000                             : :Chapter 10
    00:50:00.000                             : :Chapter 11
    00:55:00.000                             : :Chapter 12
    01:00:00.000                             : :Chapter 13
    01:05:00.000                             : :Chapter 14
    01:10:00.000                             : :Chapter 15
    01:15:00.000                             : :Chapter 16
    01:20:00.000                             : :Chapter 17
    01:25:00.000                             : :Chapter 18
    01:30:00.000                             : :Chapter 19
    01:35:00.000                             : :Chapter 20
    01:40:00.000                             : :Chapter 21

  • Peso: 9.07 GiB

Sinopsis

Rayo McQueen sigue siendo el mejor coche de carreras del mundo, pero ahora que es uno de los más veteranos del circuito, debe demostrar a todo el mundo que aún puede ganar una gran carrera y que no necesita jubilarse. En esta ocasión, el famoso bólido de carreras tendrá que enfrentarse a una nueva generación de corredores más jóvenes, potentes y veloces, que amenaza con cambiar el deporte de su vida. Entre ellos está el competitivo y revolucionario Jackson Storm, que no se lo pondrá nada fácil.

Ficha técnica

Video trailer de la película

Enlaces de descarga

Rip de Bluray

Descargar Cars 3 (2017) 4K HDR Latino




Aportes de DPeliculasHDmega la pass es:dpeliculashdmega.org Aportes de CinemaniaHD la pass es:cinemaniahdd.com
Guardado en : 4K HDR , 4K UHD , Animación , Aventura , Comedia , Familia

Películas relacionadas

  • El secreto de mi éxito (1987) REMUX 1080p Latino

    1987
    El secreto de mi éxito (1987) REMUX 1080p Latino

    0.0 1h 40m 1987

    Brantley Foster, un educado chico de Arkansas que acaba de licenciarse, ha soñado siempre con triunfar...

    Director: Herbert Ross

    Género: Comedia

    Actores: Richard Jordan

  • Samantha! (2019) Temporada 1 y 2 NF 1080p Latino

    2018
    Samantha! (2019) Temporada 1 y 2 NF 1080p Latino

    0.0 0h 28m 2018

    Samantha, una estrella infantil en la década de los 80, se aferra a los límites de la celebridad con...

    Director: Felipe Braga

    Género: Comedia

    Actores: Sidney Alexandre

  • Someone Great (2019) NF 1080p Latino

    2019
    Someone Great (2019) NF 1080p Latino

    0.0 1h 32m 2019

    Para Makani Young, mudarse a Nebraska desde Hawaii, resultó todo un choque cultural. Todavía adaptándose...

    Director: Jennifer Kaytin Robinson

    Género: Comedia

    Actores: Thomas Kopache

Comentarios 0