×

¿Problemas para descargar con Mozilla, EDGE? Deshabilita la opción "Abrir vinculos en una pestaña nueva" tal como lo muestra ésta imagen.

Cars (2006) REMUX 4K HDR Latino – CMHDD

199 vistas

Información de Cars (2006) REMUX 4K HDR Latino – CMHDD

Datos de la película

  • Calidad:
  • Audio: Español Latino AC3 5.1 BLURAY - Ingles DTS 5.1 BLURAY
  • Subtitulos: Español Latino PGS
  • Resolución: 3840x2160p
  • Formato: MKV
  • Codec: H.264
  • Encoder: Dracarys
  • Mediainfo: Clic para Mostrar Datos Ver
  • Format                      : Matroska
    Format version              : Version 4
    File size                   : 41.0 GiB
    Duration                    : 1 h 56 min
    Overall bit rate mode       : Variable
    Overall bit rate            : 50.3 Mb/s
    Movie name                  : Cars (2006) REMUX 4K HDR Latino - CMHDD
    Encoded date                : UTC 2022-04-27 18:12:57
    Writing application         : mkvmerge v17.0.0 ('Be Ur Friend') 64-bit
    Writing library             : libebml v1.3.5 + libmatroska v1.4.8

    Video
    ID                          : 1
    Format                      : HEVC
    Format/Info                 : High Efficiency Video Coding
    Format profile              : Main 10@L5.1@High
    HDR format                  : SMPTE ST 2086, HDR10 compatible
    Codec ID                    : V_MPEGH/ISO/HEVC
    Duration                    : 1 h 56 min
    Bit rate                    : 39.7 Mb/s
    Width                       : 3 840 pixels
    Height                      : 2 160 pixels
    Display aspect ratio        : 16:9
    Frame rate mode             : Constant
    Frame rate                  : 23.976 (23976/1000) FPS
    Original frame rate         : 23.976 (24000/1001) FPS
    Color space                 : YUV
    Chroma subsampling          : 4:2:0 (Type 2)
    Bit depth                   : 10 bits
    Bits/(Pixel*Frame)          : 0.200
    Stream size                 : 32.4 GiB (79%)
    Writing library             : ATEME Titan File 3.9.0 (4.9.0.0)        
    Default                     : Yes
    Forced                      : No
    Color range                 : Limited
    Color primaries             : BT.2020
    Transfer characteristics    : PQ
    Matrix coefficients         : BT.2020 non-constant
    Mastering display color pri : Display P3
    Mastering display luminance : min: 0.0000 cd/m2, max: 1000 cd/m2

    Audio #1
    ID                          : 2
    Format                      : MLP FBA 16-ch
    Format/Info                 : Meridian Lossless Packing FBA with 16-channel presentation
    Commercial name             : Dolby TrueHD with Dolby Atmos
    Codec ID                    : A_TRUEHD
    Duration                    : 1 h 56 min
    Bit rate mode               : Variable
    Bit rate                    : 7 096 kb/s
    Maximum bit rate            : 9 315 kb/s
    Channel(s)                  : 8 channels
    Channel layout              : L R C LFE Ls Rs Lb Rb
    Sampling rate               : 48.0 kHz
    Frame rate                  : 1 200.000 FPS (40 SPF)
    Compression mode            : Lossless
    Delay relative to video     : 32 ms
    Stream size                 : 5.79 GiB (14%)
    Language                    : English
    Default                     : No
    Forced                      : No
    Number of dynamic objects   : 13
    Bed channel count           : 1 channel
    Bed channel configuration   : LFE

    Audio #2
    ID                          : 3
    Format                      : AC-3
    Format/Info                 : Audio Coding 3
    Commercial name             : Dolby Digital
    Format settings             : Dolby Surround EX
    Codec ID                    : A_AC3
    Duration                    : 1 h 56 min
    Bit rate mode               : Constant
    Bit rate                    : 640 kb/s
    Channel(s)                  : 6 channels
    Channel layout              : L R C LFE Ls Rs
    Sampling rate               : 48.0 kHz
    Frame rate                  : 31.250 FPS (1536 SPF)
    Compression mode            : Lossy
    Delay relative to video     : 31 ms
    Stream size                 : 535 MiB (1%)
    Language                    : English
    Service kind                : Complete Main
    Default                     : No
    Forced                      : No

    Audio #3
    ID                          : 4
    Format                      : DTS ES XBR
    Format/Info                 : Digital Theater Systems
    Commercial name             : DTS-HD High Resolution Audio
    Codec ID                    : A_DTS
    Duration                    : 1 h 56 min
    Bit rate mode               : Constant
    Bit rate                    : 2 046 kb/s
    Channel(s)                  : 6 channels
    Channel(s)_Original         : 7 channels
    ChannelLayout_Original      : C L R Ls Rs LFE Cs
    Sampling rate               : 48.0 kHz
    Frame rate                  : 93.750 FPS (512 SPF)
    Bit depth                   : 24 bits
    Compression mode            : Lossy
    Stream size                 : 1.67 GiB (4%)
    Language                    : English
    Default                     : No
    Forced                      : No

    Audio #4
    ID                          : 5
    Format                      : AC-3
    Format/Info                 : Audio Coding 3
    Commercial name             : Dolby Digital
    Format settings             : Dolby Surround EX
    Codec ID                    : A_AC3
    Duration                    : 1 h 56 min
    Bit rate mode               : Constant
    Bit rate                    : 640 kb/s
    Channel(s)                  : 6 channels
    Channel layout              : L R C LFE Ls Rs
    Sampling rate               : 48.0 kHz
    Frame rate                  : 31.250 FPS (1536 SPF)
    Compression mode            : Lossy
    Stream size                 : 535 MiB (1%)
    Language                    : Spanish
    Service kind                : Complete Main
    Default                     : Yes
    Forced                      : No

    Text
    ID                          : 6
    Format                      : PGS
    Muxing mode                 : zlib
    Codec ID                    : S_HDMV/PGS
    Codec ID/Info               : Picture based subtitle format used on BDs/HD-DVDs
    Duration                    : 1 h 55 min
    Bit rate                    : 35.2 kb/s
    Count of elements           : 2798
    Stream size                 : 29.0 MiB (0%)
    Language                    : Spanish
    Default                     : No
    Forced                      : No

    Menu
    00:00:00.000                : en:Chapter 1
    00:09:38.410                : en:Chapter 2
    00:13:48.827                : en:Chapter 3
    00:16:19.853                : en:Chapter 4
    00:19:53.483                : en:Chapter 5
    00:24:33.888                : en:Chapter 6
    00:27:27.562                : en:Chapter 7
    00:28:12.774                : en:Chapter 8
    00:29:42.154                : en:Chapter 9
    00:33:58.285                : en:Chapter 10
    00:35:54.276                : en:Chapter 11
    00:41:51.174                : en:Chapter 12
    00:45:56.586                : en:Chapter 13
    00:48:41.042                : en:Chapter 14
    00:50:39.494                : en:Chapter 15
    00:54:41.194                : en:Chapter 16
    00:57:48.214                : en:Chapter 17
    01:01:29.768                : en:Chapter 18
    01:02:59.108                : en:Chapter 19
    01:05:43.272                : en:Chapter 20
    01:07:43.600                : en:Chapter 21
    01:09:49.810                : en:Chapter 22
    01:11:27.741                : en:Chapter 23
    01:15:01.955                : en:Chapter 24
    01:15:58.303                : en:Chapter 25
    01:20:14.642                : en:Chapter 26
    01:22:22.186                : en:Chapter 27
    01:24:59.301                : en:Chapter 28
    01:27:32.246                : en:Chapter 29
    01:32:37.509                : en:Chapter 30
    01:46:18.120                : en:Chapter 31
    01:48:32.338                : en:Chapter 32

  • Peso: 41.0 GiB

Sinopsis

El aspirante a campeón de carreras Rayo McQueen está sobre la vía rápida al éxito, la fama y todo lo que él había soñado, hasta que por error toma un desvío inesperado en la polvorienta y solitaria Ruta 66. Su actitud arrogante se desvanece cuando llega a una pequeña comunidad olvidada que le enseña las cosas importantes de la vida que había olvidado.

Ficha técnica

Video trailer de la película

Enlaces de descarga

Rip de Bluray

Descargar Cars (2006) REMUX 4K HDR Latino – CMHDD


Aportes de DPeliculasHDmega la pass es:dpeliculashdmega.org Aportes de CinemaniaHD la pass es:cinemaniahdd.com
Guardado en : Animación , Aventura , Comedia , Familia

Películas relacionadas

Cars (2006) REMUX 4K HDR Latino – CMHDD pelicula full hd, Cars (2006) REMUX 4K HDR Latino – CMHDD mega latino, Cars (2006) REMUX 4K HDR Latino – CMHDD 4k latino, Cars (2006) REMUX 4K HDR Latino – CMHDD pelicula completa, Cars (2006) REMUX 4K HDR Latino – CMHDD descargar gratis, descargar Cars (2006) REMUX 4K HDR Latino – CMHDD pelicula latino, Cars (2006) REMUX 4K HDR Latino – CMHDD 1 link mega, Cars (2006) REMUX 4K HDR Latino – CMHDD 1 link google drive, Cars (2006) REMUX 4K HDR Latino – CMHDD hd 1080p latino.
Comentarios 0