×

¿Problemas para descargar con Mozilla, EDGE? Deshabilita la opción "Abrir vinculos en una pestaña nueva" tal como lo muestra ésta imagen.

Cars 2 (2011) REMUX 4K HDR Latino – CMHDD

208 vistas

Información de Cars 2 (2011) REMUX 4K HDR Latino – CMHDD

Datos de la película

  • Calidad: 4K HDR
  • Audio: Se especifica abajo de la Sinopsis
  • Subtitulos: Español Latino PGS
  • Resolución: 3840x2160p
  • Formato: MKV
  • Codec: H.264
  • Encoder: Dracarys
  • Mediainfo: Clic para Mostrar Datos Ver
  • Format                      : Matroska
    Format version              : Version 4
    File size                   : 38.1 GiB
    Duration                    : 1 h 46 min
    Overall bit rate mode       : Variable
    Overall bit rate            : 51.3 Mb/s
    Movie name                  : Cars 2 (2011) REMUX 4K HDR Latino - CMHDD
    Encoded date                : UTC 2021-03-13 23:38:22
    Writing application         : mkvmerge v51.0.0 ('I Wish') 64-bit
    Writing library             : libebml v1.4.0 + libmatroska v1.6.2
    Cover                       : Yes
    Attachments                 : cover.jpg

    Video
    ID                          : 1
    Format                      : HEVC
    Format/Info                 : High Efficiency Video Coding
    Format profile              : Main 10@L5.1@High
    HDR format                  : SMPTE ST 2086, HDR10 compatible
    Codec ID                    : V_MPEGH/ISO/HEVC
    Duration                    : 1 h 46 min
    Bit rate                    : 41.9 Mb/s
    Width                       : 3 840 pixels
    Height                      : 2 160 pixels
    Display aspect ratio        : 16:9
    Frame rate mode             : Constant
    Frame rate                  : 23.976 (23976/1000) FPS
    Original frame rate         : 23.976 (24000/1001) FPS
    Color space                 : YUV
    Chroma subsampling          : 4:2:0 (Type 2)
    Bit depth                   : 10 bits
    Bits/(Pixel*Frame)          : 0.211
    Stream size                 : 31.1 GiB (82%)
    Writing library             : ATEME Titan File 3.9.0 (4.9.0.0)        
    Default                     : Yes
    Forced                      : No
    Color range                 : Limited
    Color primaries             : BT.2020
    Transfer characteristics    : PQ
    Matrix coefficients         : BT.2020 non-constant
    Mastering display color pri : Display P3
    Mastering display luminance : min: 0.0000 cd/m2, max: 1000 cd/m2

    Audio #1
    ID                          : 2
    Format                      : E-AC-3
    Format/Info                 : Enhanced AC-3
    Commercial name             : Dolby Digital Plus
    Format profile              : Blu-ray Disc
    Codec ID                    : A_EAC3
    Duration                    : 1 h 46 min
    Bit rate mode               : Constant
    Bit rate                    : 896 kb/s
    Channel(s)                  : 8 channels
    Channel layout              : L R C LFE Ls Rs Lb Rb
    Sampling rate               : 48.0 kHz
    Frame rate                  : 31.250 FPS (1536 SPF)
    Compression mode            : Lossy
    Stream size                 : 681 MiB (2%)
    Language                    : Spanish
    Service kind                : Complete Main
    Default                     : Yes
    Forced                      : No

    Audio #2
    ID                          : 3
    Format                      : MLP FBA 16-ch
    Format/Info                 : Meridian Lossless Packing FBA with 16-channel presentation
    Commercial name             : Dolby TrueHD with Dolby Atmos
    Codec ID                    : A_TRUEHD
    Duration                    : 1 h 46 min
    Bit rate mode               : Variable
    Bit rate                    : 7 473 kb/s
    Maximum bit rate            : 6 894 kb/s
    Channel(s)                  : 8 channels
    Channel layout              : L R C LFE Ls Rs Lb Rb
    Sampling rate               : 48.0 kHz
    Frame rate                  : 1 200.000 FPS (40 SPF)
    Compression mode            : Lossless
    Stream size                 : 5.55 GiB (15%)
    Language                    : English
    Default                     : No
    Forced                      : No
    Number of dynamic objects   : 13
    Bed channel count           : 1 channel
    Bed channel configuration   : LFE

    Audio #3
    ID                          : 4
    Format                      : E-AC-3
    Format/Info                 : Enhanced AC-3
    Commercial name             : Dolby Digital Plus
    Format profile              : Blu-ray Disc
    Codec ID                    : A_EAC3
    Duration                    : 1 h 46 min
    Bit rate mode               : Constant
    Bit rate                    : 896 kb/s
    Channel(s)                  : 8 channels
    Channel layout              : L R C LFE Ls Rs Lb Rb
    Sampling rate               : 48.0 kHz
    Frame rate                  : 31.250 FPS (1536 SPF)
    Compression mode            : Lossy
    Stream size                 : 681 MiB (2%)
    Language                    : English
    Service kind                : Complete Main
    Default                     : No
    Forced                      : No

    Text
    ID                          : 5
    Format                      : PGS
    Muxing mode                 : zlib
    Codec ID                    : S_HDMV/PGS
    Codec ID/Info               : Picture based subtitle format used on BDs/HD-DVDs
    Duration                    : 1 h 37 min
    Bit rate                    : 50.8 kb/s
    Count of elements           : 2884
    Stream size                 : 35.4 MiB (0%)
    Language                    : Spanish
    Default                     : No
    Forced                      : No

    Menu
    00:00:00.000                : en:Chapter 01
    00:01:30.006                : en:Chapter 02
    00:04:48.413                : en:Chapter 03
    00:07:44.505                : en:Chapter 04
    00:12:08.727                : en:Chapter 05
    00:17:49.776                : en:Chapter 06
    00:20:02.159                : en:Chapter 07
    00:22:52.370                : en:Chapter 08
    00:26:35.468                : en:Chapter 09
    00:30:30.995                : en:Chapter 10
    00:32:42.793                : en:Chapter 11
    00:34:14.343                : en:Chapter 12
    00:37:16.400                : en:Chapter 13
    00:40:44.983                : en:Chapter 14
    00:42:53.987                : en:Chapter 15
    00:46:19.401                : en:Chapter 16
    00:46:58.773                : en:Chapter 17
    00:49:49.360                : en:Chapter 18
    00:53:57.233                : en:Chapter 19
    00:54:58.086                : en:Chapter 20
    00:57:37.036                : en:Chapter 21
    00:59:28.564                : en:Chapter 22
    01:02:17.775                : en:Chapter 23
    01:05:57.119                : en:Chapter 24
    01:12:32.597                : en:Chapter 25
    01:14:06.733                : en:Chapter 26
    01:15:25.019                : en:Chapter 27
    01:21:13.826                : en:Chapter 28
    01:23:23.080                : en:Chapter 29
    01:29:07.758                : en:Chapter 30
    01:31:48.961                : en:Chapter 31
    01:32:42.055                : en:Chapter 32
    01:38:19.434                : en:Chapter 33

  • Peso: 38.1 GiB

Sinopsis

Rayo McQueen y la adorable grúa Mate viajan al extranjero para participar en el primer Campeonato Mundial en el que se decidirá cuál es el coche más rápido del planeta. La primera escala es Tokio, Japón, donde Mate tendrá que convertirse en un espía secreto al verse envuelto sin saberlo en un caso de espionaje internacional, que le llevará a París y a Londres. Por si fuera poco, también vivirán una aventura de proporciones épicas al viajar a Porto Corsa, Italia, para disputar el primer Campeonato Mundial. La pareja tendrá que perderse las especialidades de la Riviera italiana -yates, playas y pasta al pesto- ya que Mate tiene que dar un rodeo en su misión de espionaje, mientras McQueen compite contra los mejores del mundo.

 

Latino: E-AC3 7.1  –  Ingles: TrueHD + E-AC3 7.1

Ficha técnica

Video trailer de la película

Enlaces de descarga

Rip de Bluray

Descargar Cars 2 (2011) REMUX 4K HDR Latino – CMHDD


Aportes de DPeliculasHDmega la pass es:dpeliculashdmega.org Aportes de CinemaniaHD la pass es:cinemaniahdd.com
Guardado en : Animación , Aventura , Comedia , Familia

Películas relacionadas

descargar Cars 2 (2011) REMUX 4K HDR Latino – CMHDD 4K HDR 1080p gratis, Cars 2 (2011) REMUX 4K HDR Latino – CMHDD 4K HDR mega 1 link, Cars 2 (2011) REMUX 4K HDR Latino – CMHDD 4K HDR pelicula completa, descargar Cars 2 (2011) REMUX 4K HDR Latino – CMHDD 4K HDR gratis en mega.

Cars 2 (2011) REMUX 4K HDR Latino – CMHDD pelicula full hd, Cars 2 (2011) REMUX 4K HDR Latino – CMHDD mega latino, Cars 2 (2011) REMUX 4K HDR Latino – CMHDD 4k latino, Cars 2 (2011) REMUX 4K HDR Latino – CMHDD pelicula completa, Cars 2 (2011) REMUX 4K HDR Latino – CMHDD descargar gratis, descargar Cars 2 (2011) REMUX 4K HDR Latino – CMHDD pelicula latino, Cars 2 (2011) REMUX 4K HDR Latino – CMHDD 1 link mega, Cars 2 (2011) REMUX 4K HDR Latino – CMHDD 1 link google drive, Cars 2 (2011) REMUX 4K HDR Latino – CMHDD hd 1080p latino.
Comentarios 0