×

¿Problemas para descargar con Mozilla, EDGE? Deshabilita la opción "Abrir vinculos en una pestaña nueva" tal como lo muestra ésta imagen.

Carnival Row (2019) Temporada 1 AMZN WEB-DL 1080p Latino

2.974 vistas

Información de Carnival Row (2019) Temporada 1 AMZN WEB-DL 1080p Latino

Datos de la película

  • Calidad: WEBDL
  • Audio: Español Latino E-AC3 5.1 AMAZON - Ingles E-AC3 5.1 AMAZON
  • Subtitulos: Ingles SRT
  • Resolución: 1920x802
  • Formato: MKV
  • Codec: H.264
  • Encoder: cinemaniahdd
  • Mediainfo: Clic para Mostrar Datos Ver
  • Carnival Row S01E01 AMZN WEN-DL 1080p Latino.mkv
    Format                      : Matroska
    Format version              : Version 4
    File size                   : 3.60 GiB
    Duration                    : 1 h 0 min
    Overall bit rate            : 8 513 kb/s
    Movie name                  : Carnival Row S01E01 - CinemaniaHDD.Net
    Encoded date                : UTC 2019-11-22 08:36:00
    Writing application         : mkvmerge v38.0.0 ('The Silent Type') 64-bit
    Writing library             : libebml v1.3.9 + libmatroska v1.5.2

    Video
    ID                          : 1
    Format                      : AVC
    Format/Info                 : Advanced Video Codec
    Format profile              : High@L4.1
    Format settings             : CABAC / 5 Ref Frames
    Format settings, CABAC      : Yes
    Format settings, ReFrames   : 5 frames
    Codec ID                    : V_MPEG4/ISO/AVC
    Duration                    : 1 h 0 min
    Bit rate                    : 7 230 kb/s
    Width                       : 1 920 pixels
    Height                      : 802 pixels
    Display aspect ratio        : 2.40:1
    Frame rate mode             : Constant
    Frame rate                  : 23.976 (24000/1001) FPS
    Color space                 : YUV
    Chroma subsampling          : 4:2:0
    Bit depth                   : 8 bits
    Scan type                   : Progressive
    Bits/(Pixel*Frame)          : 0.196
    Stream size                 : 3.06 GiB (85%)
    Title                       : CinemaniaHDD
    Writing library             : x264 core 157 r2969 d4099dd
    Encoding settings           : cabac=1 / ref=5 / deblock=1:-3:-3 / analyse=0x3:0x133 / me=umh / subme=10 / psy=1 / psy_rd=1.00:0.00 / mixed_ref=1 / me_range=48 / chroma_me=1 / trellis=2 / 8x8dct=1 / cqm=0 / deadzone=21,11 / fast_pskip=0 / chroma_qp_offset=-2 / threads=18 / lookahead_threads=3 / sliced_threads=0 / nr=0 / decimate=0 / interlaced=0 / bluray_compat=0 / constrained_intra=0 / bframes=8 / b_pyramid=2 / b_adapt=2 / b_bias=0 / direct=3 / weightb=1 / open_gop=0 / weightp=2 / keyint=250 / keyint_min=23 / scenecut=40 / intra_refresh=0 / rc=crf / mbtree=0 / crf=17.0 / qcomp=0.60 / qpmin=0 / qpmax=69 / qpstep=4 / ip_ratio=1.30 / pb_ratio=1.20 / aq=3:0.80
    Default                     : Yes
    Forced                      : No

    Audio #1
    ID                          : 2
    Format                      : E-AC-3
    Format/Info                 : Enhanced AC-3
    Commercial name             : Dolby Digital Plus
    Codec ID                    : A_EAC3
    Duration                    : 1 h 0 min
    Bit rate mode               : Constant
    Bit rate                    : 640 kb/s
    Channel(s)                  : 6 channels
    Channel layout              : L R C LFE Ls Rs
    Sampling rate               : 48.0 kHz
    Frame rate                  : 31.250 FPS (1536 SPF)
    Compression mode            : Lossy
    Stream size                 : 277 MiB (8%)
    Title                       : Español latino [CinemaniaHDD]
    Language                    : Spanish
    Service kind                : Complete Main
    Default                     : Yes
    Forced                      : No

    Audio #2
    ID                          : 3
    Format                      : E-AC-3
    Format/Info                 : Enhanced AC-3
    Commercial name             : Dolby Digital Plus
    Codec ID                    : A_EAC3
    Duration                    : 1 h 0 min
    Bit rate mode               : Constant
    Bit rate                    : 640 kb/s
    Channel(s)                  : 6 channels
    Channel layout              : L R C LFE Ls Rs
    Sampling rate               : 48.0 kHz
    Frame rate                  : 31.250 FPS (1536 SPF)
    Compression mode            : Lossy
    Stream size                 : 277 MiB (8%)
    Title                       : Inglés [CinemaniaHDD]
    Language                    : English
    Service kind                : Complete Main
    Default                     : No
    Forced                      : No

    Text #1
    ID                          : 4
    Format                      : UTF-8
    Codec ID                    : S_TEXT/UTF8
    Codec ID/Info               : UTF-8 Plain Text
    Duration                    : 28 min 25 s
    Bit rate                    : 2 b/s
    Count of elements           : 13
    Stream size                 : 581 Bytes (0%)
    Title                       : Forzados [CinemaniaHDD]
    Language                    : Spanish
    Default                     : Yes
    Forced                      : Yes

    Text #2
    ID                          : 5
    Format                      : UTF-8
    Codec ID                    : S_TEXT/UTF8
    Codec ID/Info               : UTF-8 Plain Text
    Duration                    : 58 min 19 s
    Bit rate                    : 58 b/s
    Count of elements           : 742
    Stream size                 : 25.0 KiB (0%)
    Title                       : Español latino [CinemaniaHDD]
    Language                    : Spanish
    Default                     : No
    Forced                      : No

     

  • Peso: 3.60 GiB C/U

Sinopsis

En la oscura y futurística ciudad neo-victoriana de Burge, una serie de sucesos harán que la fantasía negra se mezcle con la realidad. Burge se ha convertido en un refugio para las criaturas de fantasía que han huido de sus respectivos mundos asolados por la guerra. Pero todo se complicará cuando un peligroso asesino en serie comience a dar caza a los no humanos. El inspector de la policía Rycroft Philostrate (Bloom) será el encargado de investigar el último caso: el asesinado de una bailarina. y aunque el inspector trate de no involucrarse personalmente en el caso, pronto descubrirá que no es fácil separar los sentimientos del trabajo.

Ficha técnica

Video trailer de la película

Enlaces de descarga

Rip de Bluray

Descargar Carnival Row (2019) Temporada 1 AMZN WEB-DL 1080p Latino




Aportes de DPeliculasHDmega la pass es:dpeliculashdmega.org Aportes de CinemaniaHD la pass es:cinemaniahdd.com
Guardado en : Sci-Fi & Fantasy , Series

Películas relacionadas

descargar Carnival Row (2019) Temporada 1 AMZN WEB-DL 1080p Latino WEBDL 1080p gratis, Carnival Row (2019) Temporada 1 AMZN WEB-DL 1080p Latino WEBDL mega 1 link, Carnival Row (2019) Temporada 1 AMZN WEB-DL 1080p Latino WEBDL serie completa, descargar Carnival Row (2019) Temporada 1 AMZN WEB-DL 1080p Latino WEBDL gratis en mega.

Carnival Row (2019) Temporada 1 AMZN WEB-DL 1080p Latino pelicula full hd, Carnival Row (2019) Temporada 1 AMZN WEB-DL 1080p Latino mega latino, Carnival Row (2019) Temporada 1 AMZN WEB-DL 1080p Latino 4k latino, Carnival Row (2019) Temporada 1 AMZN WEB-DL 1080p Latino pelicula completa, Carnival Row (2019) Temporada 1 AMZN WEB-DL 1080p Latino descargar gratis, descargar Carnival Row (2019) Temporada 1 AMZN WEB-DL 1080p Latino pelicula latino, Carnival Row (2019) Temporada 1 AMZN WEB-DL 1080p Latino 1 link mega, Carnival Row (2019) Temporada 1 AMZN WEB-DL 1080p Latino 1 link google drive, Carnival Row (2019) Temporada 1 AMZN WEB-DL 1080p Latino hd 1080p latino.
Comentarios 2
  • Eugenio Cárdenas Carvajal - 26 noviembre, 2019

    Muchas gracias por la serie. Está muy buena. Ya descargué la temporada. Hay un error en el Episodio 3, el audio corresponde al Episodio 4. Podrían corregirlo. Gracias

    • CinemaniaHDD - 26 noviembre, 2019

      Hola, gracias por el aviso ya estoy reparando el capitulo.
      solo ese es el fallo?