×

¿Problemas para descargar con Mozilla, EDGE? Deshabilita la opción "Abrir vinculos en una pestaña nueva" tal como lo muestra ésta imagen.

Carnival Row (2019) Primera Temporada AMZN WEB-DL 1080p Latino

3.461 vistas

Información de Carnival Row (2019) Primera Temporada AMZN WEB-DL 1080p Latino

Datos de la película

  • Calidad: 1080p
  • Audio: Español Latino AC3 5.1 WEB-DL - Ingles AC3 5.1 WEB-DL
  • Subtitulos: Español Latino SRT- FORZADOS SRT
  • Resolución: 1920x802
  • Formato: MKV
  • Codec: H.264
  • Encoder: cinemaniahdd
  • Mediainfo: Clic para Mostrar Datos Ver
  • Carnival Row T01E01 AMZN WEB-DL 1080p Latino [CNMNHDD].mkv
    Format                      : Matroska
    Format version              : Version 4
    File size                   : 3.18 GiB
    Duration                    : 1 h 0 min
    Overall bit rate            : 7 506 kb/s
    Movie name                  : Carnival Row S01E01 - Some Dark God Wakes [1080p] - CinemaniaHDD.Net
    Encoded date                : UTC 2023-02-17 01:34:24
    Writing application         : mkvmerge v56.1.0 ('My Friend') 64-bit
    Writing library             : libebml v1.4.2 + libmatroska v1.6.4

    Video
    ID                          : 1
    Format                      : AVC
    Format/Info                 : Advanced Video Codec
    Format profile              : High@L4
    Format settings             : CABAC / 4 Ref Frames
    Format settings, CABAC      : Yes
    Format settings, Reference  : 4 frames
    Codec ID                    : V_MPEG4/ISO/AVC
    Duration                    : 1 h 0 min
    Bit rate mode               : Constant
    Bit rate                    : 5 584 kb/s
    Nominal bit rate            : 10 000 kb/s
    Width                       : 1 920 pixels
    Height                      : 1 080 pixels
    Display aspect ratio        : 16:9
    Frame rate mode             : Constant
    Frame rate                  : 23.976 (24000/1001) FPS
    Color space                 : YUV
    Chroma subsampling          : 4:2:0
    Bit depth                   : 8 bits
    Scan type                   : Progressive
    Bits/(Pixel*Frame)          : 0.112
    Stream size                 : 2.36 GiB (74%)
    Title                       : CinemaniaHDD
    Default                     : Yes
    Forced                      : No
    Color range                 : Limited
    Color primaries             : BT.709
    Transfer characteristics    : BT.709
    Matrix coefficients         : BT.709

    Audio #1
    ID                          : 2
    Format                      : AC-3
    Format/Info                 : Audio Coding 3
    Commercial name             : Dolby Digital
    Codec ID                    : A_AC3
    Duration                    : 1 h 0 min
    Bit rate mode               : Constant
    Bit rate                    : 640 kb/s
    Channel(s)                  : 6 channels
    Channel layout              : L R C LFE Ls Rs
    Sampling rate               : 48.0 kHz
    Frame rate                  : 31.250 FPS (1536 SPF)
    Compression mode            : Lossy
    Stream size                 : 277 MiB (9%)
    Title                       : Español latino [CinemaniaHDD]
    Language                    : Spanish
    Service kind                : Complete Main
    Default                     : Yes
    Forced                      : No

    Audio #2
    ID                          : 3
    Format                      : E-AC-3
    Format/Info                 : Enhanced AC-3
    Commercial name             : Dolby Digital Plus
    Codec ID                    : A_EAC3
    Duration                    : 1 h 0 min
    Bit rate mode               : Constant
    Bit rate                    : 640 kb/s
    Channel(s)                  : 6 channels
    Channel layout              : L R C LFE Ls Rs
    Sampling rate               : 48.0 kHz
    Frame rate                  : 31.250 FPS (1536 SPF)
    Compression mode            : Lossy
    Stream size                 : 277 MiB (9%)
    Title                       : Español latino / E-AC3 [CinemaniaHDD]
    Language                    : Spanish
    Service kind                : Complete Main
    Default                     : No
    Forced                      : No

    Audio #3
    ID                          : 4
    Format                      : E-AC-3
    Format/Info                 : Enhanced AC-3
    Commercial name             : Dolby Digital Plus
    Codec ID                    : A_EAC3
    Duration                    : 1 h 0 min
    Bit rate mode               : Constant
    Bit rate                    : 640 kb/s
    Channel(s)                  : 6 channels
    Channel layout              : L R C LFE Ls Rs
    Sampling rate               : 48.0 kHz
    Frame rate                  : 31.250 FPS (1536 SPF)
    Compression mode            : Lossy
    Stream size                 : 277 MiB (9%)
    Title                       : Inglés [CinemaniaHDD]
    Language                    : English
    Service kind                : Complete Main
    Default                     : No
    Forced                      : No

    Text #1
    ID                          : 5
    Format                      : UTF-8
    Codec ID                    : S_TEXT/UTF8
    Codec ID/Info               : UTF-8 Plain Text
    Duration                    : 46 min 12 s
    Bit rate                    : 1 b/s
    Count of elements           : 13
    Stream size                 : 559 Bytes (0%)
    Title                       : Forzados [CinemaniaHDD]
    Language                    : Spanish
    Default                     : Yes
    Forced                      : Yes

    Text #2
    ID                          : 6
    Format                      : UTF-8
    Codec ID                    : S_TEXT/UTF8
    Codec ID/Info               : UTF-8 Plain Text
    Duration                    : 58 min 19 s
    Bit rate                    : 58 b/s
    Count of elements           : 743
    Stream size                 : 24.8 KiB (0%)
    Title                       : Español latino [CinemaniaHDD]
    Language                    : Spanish
    Default                     : No
    Forced                      : No

    Menu
    00:00:00.000                : 1. Amazon Original
    00:00:05.000                : 2. Title Sequence
    00:00:18.000                : 3. Opening Credits
    00:00:29.000                : 4. The history of The Great War
    00:01:49.000                : 5. Fleeing from Tirnanoc
    00:08:00.000                : 6. Philo works on a case in The Burgue
    00:14:29.000                : 7. The wreckage from the ship
    00:15:22.000                : 8. Political leanings in The Burgue
    00:19:02.000                : 9. Philo chases down a lead
    00:20:45.000                : 10. Vignette's fate after the shipwreck
    00:26:00.000                : 11. Philo attends a protest meeting
    00:28:46.000                : 12. Philo experiences favoritism
    00:31:48.000                : 13. Running errands leads to an old friend
    00:37:56.000                : 14. Philo gets reprimanded
    00:40:27.000                : 15. Vignette vows revenge
    00:41:06.000                : 16. Greeting the new neighbors
    00:42:52.000                : 17. Jonah has a little fun
    00:45:24.000                : 18. Looking for a fish in the sea
    00:50:36.000                : 19. Vignette comes for Philo
    00:57:07.000                : 20. The darkness is coming...
    00:58:33.000                : 21. End Credits

     

     

  • Peso: 3.18 GiB Aprox ---- 23 GiB in 8 Chapters.

Sinopsis

En la oscura y futurística ciudad neo-victoriana de Burge, una serie de sucesos harán que la fantasía negra se mezcle con la realidad. Burge se ha convertido en un refugio para las criaturas de fantasía que han huido de sus respectivos mundos asolados por la guerra. Pero todo se complicará cuando un peligroso asesino en serie comience a dar caza a los no humanos. El inspector de la policía Rycroft Philostrate (Bloom) será el encargado de investigar el último caso: el asesinado de una bailarina. y aunque el inspector trate de no involucrarse personalmente en el caso, pronto descubrirá que no es fácil separar los sentimientos del trabajo.

Ficha técnica

Video trailer de la película

Enlaces de descarga

Rip de Bluray

Descargar Carnival Row (2019) Primera Temporada AMZN WEB-DL 1080p Latino




Aportes de DPeliculasHDmega la pass es:dpeliculashdmega.org Aportes de CinemaniaHD la pass es:cinemaniahdd.com Aportes recientes:cinemaniahdd.net
Guardado en : Sci-Fi & Fantasy , Series

Películas relacionadas

descargar Carnival Row (2019) Primera Temporada AMZN WEB-DL 1080p Latino 1080p 1080p gratis, Carnival Row (2019) Primera Temporada AMZN WEB-DL 1080p Latino 1080p mega 1 link, Carnival Row (2019) Primera Temporada AMZN WEB-DL 1080p Latino 1080p serie completa, descargar Carnival Row (2019) Primera Temporada AMZN WEB-DL 1080p Latino 1080p gratis en mega.

Carnival Row (2019) Primera Temporada AMZN WEB-DL 1080p Latino pelicula full hd, Carnival Row (2019) Primera Temporada AMZN WEB-DL 1080p Latino mega latino, Carnival Row (2019) Primera Temporada AMZN WEB-DL 1080p Latino 4k latino, Carnival Row (2019) Primera Temporada AMZN WEB-DL 1080p Latino pelicula completa, Carnival Row (2019) Primera Temporada AMZN WEB-DL 1080p Latino descargar gratis, descargar Carnival Row (2019) Primera Temporada AMZN WEB-DL 1080p Latino pelicula latino, Carnival Row (2019) Primera Temporada AMZN WEB-DL 1080p Latino 1 link mega, Carnival Row (2019) Primera Temporada AMZN WEB-DL 1080p Latino 1 link google drive, Carnival Row (2019) Primera Temporada AMZN WEB-DL 1080p Latino hd 1080p latino.
Comentarios 3