Career Opportunities (1991) Full HD 1080p Latino – CMHDD

68 vistas
1 estrella2 estrellas3 estrellas4 estrellas5 estrellas (1 votos, promedio: 5,00 de 5)
Cargando...

Información de Career Opportunities (1991) Full HD 1080p Latino – CMHDD

Datos de la película

  • Calidad: Full 1080p
  • Audio: Se especifica abajo de la Sinopsis
  • Subtitulos: Español Latino SRT
  • Resolución: 1920x1080p
  • Formato: MKV
  • Codec: H.264
  • Encoder: Dracarys
  • Mediainfo: Clic para Mostrar Datos Ver
  • Format                      : Matroska
    Format version              : Version 4
    File size                   : 5.85 GiB
    Duration                    : 1 h 22 min
    Overall bit rate            : 10.1 Mb/s
    Movie name                  : Career Opportunities (1991) Full HD 1080p Latino - CMHDD
    Encoded date                : UTC 2021-07-18 21:34:34
    Writing application         : mkvmerge v56.1.0 ('My Friend') 64-bit
    Writing library             : libebml v1.4.2 + libmatroska v1.6.4

    Video
    ID                          : 1
    Format                      : AVC
    Format/Info                 : Advanced Video Codec
    Format profile              : High@L4.1
    Format settings             : CABAC / 4 Ref Frames
    Format settings, CABAC      : Yes
    Format settings, Reference  : 4 frames
    Codec ID                    : V_MPEG4/ISO/AVC
    Duration                    : 1 h 22 min
    Bit rate                    : 9 683 kb/s
    Width                       : 1 920 pixels
    Height                      : 1 080 pixels
    Display aspect ratio        : 16:9
    Frame rate mode             : Constant
    Frame rate                  : 23.976 (24000/1001) FPS
    Color space                 : YUV
    Chroma subsampling          : 4:2:0
    Bit depth                   : 8 bits
    Scan type                   : Progressive
    Bits/(Pixel*Frame)          : 0.195
    Stream size                 : 5.61 GiB (96%)
    Writing library             : x264 core 157 r2935 545de2f
    Encoding settings           : cabac=1 / ref=4 / deblock=1:0:0 / analyse=0x3:0x133 / me=tesa / subme=11 / psy=1 / psy_rd=1.00:0.00 / mixed_ref=1 / me_range=24 / chroma_me=1 / trellis=2 / 8x8dct=1 / cqm=0 / deadzone=21,11 / fast_pskip=0 / chroma_qp_offset=-2 / threads=24 / lookahead_threads=6 / sliced_threads=0 / nr=0 / decimate=1 / interlaced=0 / bluray_compat=0 / constrained_intra=0 / bframes=16 / b_pyramid=2 / b_adapt=2 / b_bias=0 / direct=3 / weightb=1 / open_gop=0 / weightp=2 / keyint=240 / keyint_min=24 / scenecut=40 / intra_refresh=0 / rc_lookahead=60 / rc=crf / mbtree=1 / crf=20.0 / qcomp=0.60 / qpmin=0 / qpmax=69 / qpstep=4 / vbv_maxrate=62500 / vbv_bufsize=78125 / crf_max=0.0 / nal_hrd=none / filler=0 / ip_ratio=1.40 / aq=1:1.00
    Default                     : Yes
    Forced                      : No
    Color range                 : Limited
    Color primaries             : BT.709
    Transfer characteristics    : BT.709
    Matrix coefficients         : BT.709

    Audio #1
    ID                          : 2
    Format                      : AC-3
    Format/Info                 : Audio Coding 3
    Commercial name             : Dolby Digital
    Codec ID                    : A_AC3
    Duration                    : 1 h 22 min
    Bit rate mode               : Constant
    Bit rate                    : 224 kb/s
    Channel(s)                  : 2 channels
    Channel layout              : L R
    Sampling rate               : 48.0 kHz
    Frame rate                  : 31.250 FPS (1536 SPF)
    Compression mode            : Lossy
    Stream size                 : 133 MiB (2%)
    Language                    : Spanish
    Service kind                : Complete Main
    Default                     : Yes
    Forced                      : No

    Audio #2
    ID                          : 3
    Format                      : AC-3
    Format/Info                 : Audio Coding 3
    Commercial name             : Dolby Digital
    Codec ID                    : A_AC3
    Duration                    : 1 h 22 min
    Bit rate mode               : Constant
    Bit rate                    : 192 kb/s
    Channel(s)                  : 2 channels
    Channel layout              : L R
    Sampling rate               : 48.0 kHz
    Frame rate                  : 31.250 FPS (1536 SPF)
    Compression mode            : Lossy
    Stream size                 : 114 MiB (2%)
    Language                    : English
    Service kind                : Complete Main
    Default                     : No
    Forced                      : No

    Text
    ID                          : 4
    Format                      : UTF-8
    Codec ID                    : S_TEXT/UTF8
    Codec ID/Info               : UTF-8 Plain Text
    Duration                    : 1 h 21 min
    Bit rate                    : 67 b/s
    Count of elements           : 1246
    Stream size                 : 40.7 KiB (0%)
    Language                    : Spanish
    Default                     : No
    Forced                      : No

  • Peso: 5.85 GiB

Sinopsis

Un inmaduro y poco afortunado adolescente, Frank (Frank Whaley), consigue un trabajo de vigilante nocturno en una tienda, y al poco tiempo se queda encerrado nada más y nada menos que con la chica más guapa del lugar (Jennifer Connelly), una joven tan bella como rica. Ella tampoco es muy feliz con su familia y con su novio (Dermot Mulroney), pero ambos pertenecen a ambientes muy distintos, así que Frank tendrá sólo esa noche para intentar conquistarla.

 

Latino: AC3 2.0  –  Ingles: AC3 2.0

Ficha técnica

  • Titulo original: Career Opportunities
  • Fecha de lanzamiento: 29-03-1991 (United States of America)
  • Director: Bryan Gordon
  • Género: Comedia, Drama, Romance
  • Puntuación: 5.0 1 votos
  • Duración:
    1h 29m

Video trailer de la película

Enlaces de descarga

Rip de Bluray

Descargar Career Opportunities (1991) Full HD 1080p Latino – CMHDD




Aportes de DPeliculasHDmega la pass es:dpeliculashdmega.org Aportes de CinemaniaHD la pass es:cinemaniahdd.com
Guardado en : Comedia , Drama , Romance

Películas relacionadas

  • Pixie (2020) HBOMAX WEB-DL 1080p Latino

    Pixie (2020) HBOMAX WEB-DL 1080p Latino

    2020
    Pixie (2020) HBOMAX WEB-DL 1080p Latino

    5.0 1h 34m 2020

    Para vengar la muerte de su madre, Pixie planea un atraco, pero debe huir a través de Irlanda de los...

    Director: Stephen Darragh

    Género: Comedia

    Actores: Turlough Convery

  • Space Jam: Una Nueva Era (2021) HD 1080p Latino

    Space Jam: Una Nueva Era (2021) HD 1080p Latino

    2021
    Space Jam: Una Nueva Era (2021) HD 1080p Latino

    0.0 1h 55m 2021

    Descargar Space Jam: Una Nueva Era (2021) HD 1080p Latino. ecuela de la cinta original de 1996, Space...

    Director: Rhys Summerhayes

    Género: Animación

    Actores: Zendaya

  • Stargirl (2021) Temporada 2 WEB-DL 1080p Latino

    Stargirl (2021) Temporada 2 WEB-DL 1080p Latino

    2020
    Stargirl (2021) Temporada 2 WEB-DL 1080p Latino

    3.7 0h 43m 2020

    Courtney Withmore es una estudiante de instituto que ayuda a un grupo de jóvenes héroes a acabar con...

    Director: Geoff Johns

    Género: Action & Adventure

    Actores: Yvette Monreal

Career Opportunities (1991) Full HD 1080p Latino – CMHDD pelicula full hd, Career Opportunities (1991) Full HD 1080p Latino – CMHDD mega latino, Career Opportunities (1991) Full HD 1080p Latino – CMHDD 4k latino, Career Opportunities (1991) Full HD 1080p Latino – CMHDD pelicula completa, Career Opportunities (1991) Full HD 1080p Latino – CMHDD descargar gratis, descargar Career Opportunities (1991) Full HD 1080p Latino – CMHDD pelicula latino, Career Opportunities (1991) Full HD 1080p Latino – CMHDD 1 link mega, Career Opportunities (1991) Full HD 1080p Latino – CMHDD 1 link google drive, Career Opportunities (1991) Full HD 1080p Latino – CMHDD hd 1080p latino.
Comentarios 0