×

¿Problemas para descargar con Mozilla, EDGE? Deshabilita la opción "Abrir vinculos en una pestaña nueva" tal como lo muestra ésta imagen.

La Rebelion (2019) REMUX 1080p Latino

746 vistas

Información de La Rebelion (2019) REMUX 1080p Latino

nacion cautiva 54465 poster

Datos de la película

  • Calidad: Full 1080p
  • Audio: Español Latino AC3 5.1 DVD - Ingles DTS 5.1 BLURAY
  • Subtitulos: Español Latino PGS - Ingles PGS
  • Resolución: 1920x1080p
  • Formato: MKV
  • Codec: H.264
  • Encoder: CinefiloCool
  • Mediainfo: Clic para Mostrar Datos Ver
  • La Rebelion (2019) REMUX 1080p Latino.mkv
    Format                      : Matroska
    Format version              : Version 4
    File size                   : 30.2 GiB
    Duration                    : 1 h 49 min
    Overall bit rate mode       : Variable
    Overall bit rate            : 39.5 Mb/s
    Movie name                  : CinemaniaHDD.Net
    Encoded date                : UTC 2019-06-27 05:40:34
    Writing application         : mkvmerge v30.1.0 ('Forever And More') 64-bit
    Writing library             : libebml v1.3.6 + libmatroska v1.4.9
    Attachments                 : CINEMANIAHD.png

    Video
    ID                          : 1
    Format                      : AVC
    Format/Info                 : Advanced Video Codec
    Format profile              : High@L4.1
    Format settings             : CABAC / 4 Ref Frames
    Format settings, CABAC      : Yes
    Format settings, ReFrames   : 4 frames
    Format settings, GOP        : M=3, N=12
    Codec ID                    : V_MPEG4/ISO/AVC
    Duration                    : 1 h 49 min
    Bit rate mode               : Variable
    Bit rate                    : 35.5 Mb/s
    Maximum bit rate            : 39.6 Mb/s
    Width                       : 1 920 pixels
    Height                      : 1 080 pixels
    Display aspect ratio        : 16:9
    Frame rate mode             : Constant
    Frame rate                  : 23.976 (24000/1001) FPS
    Color space                 : YUV
    Chroma subsampling          : 4:2:0
    Bit depth                   : 8 bits
    Scan type                   : Progressive
    Bits/(Pixel*Frame)          : 0.715
    Stream size                 : 27.2 GiB (90%)
    Title                       : Full HD1080p [REMUX]
    Default                     : Yes
    Forced                      : No

    Audio #1
    ID                          : 2
    Format                      : AC-3
    Format/Info                 : Audio Coding 3
    Commercial name             : Dolby Digital
    Codec ID                    : A_AC3
    Duration                    : 1 h 49 min
    Bit rate mode               : Constant
    Bit rate                    : 448 kb/s
    Channel(s)                  : 6 channels
    Channel layout              : L R C LFE Ls Rs
    Sampling rate               : 48.0 kHz
    Frame rate                  : 31.250 FPS (1536 SPF)
    Bit depth                   : 16 bits
    Compression mode            : Lossy
    Stream size                 : 351 MiB (1%)
    Title                       : AC3_5.1_DVD_Esp
    Language                    : Spanish
    Service kind                : Complete Main
    Default                     : Yes
    Forced                      : Yes

    Audio #2
    ID                          : 3
    Format                      : DTS XLL
    Format/Info                 : Digital Theater Systems
    Commercial name             : DTS-HD Master Audio
    Codec ID                    : A_DTS
    Duration                    : 1 h 49 min
    Bit rate mode               : Variable
    Bit rate                    : 3 452 kb/s
    Channel(s)                  : 6 channels
    Channel layout              : C L R Ls Rs LFE
    Sampling rate               : 48.0 kHz
    Frame rate                  : 93.750 FPS (512 SPF)
    Bit depth                   : 24 bits
    Compression mode            : Lossless
    Stream size                 : 2.64 GiB (9%)
    Title                       : DTS-HD_5.1_Bluray_Eng
    Language                    : English
    Default                     : No
    Forced                      : No

    Text #1
    ID                          : 4
    Format                      : PGS
    Muxing mode                 : zlib
    Codec ID                    : S_HDMV/PGS
    Codec ID/Info               : Picture based subtitle format used on BDs/HD-DVDs
    Duration                    : 1 h 49 min
    Bit rate                    : 27.9 kb/s
    Count of elements           : 1858
    Stream size                 : 21.8 MiB (0%)
    Title                       : Sub_Esp [PGS]
    Language                    : Spanish
    Default                     : No
    Forced                      : No

    Text #2
    ID                          : 5
    Format                      : PGS
    Muxing mode                 : zlib
    Codec ID                    : S_HDMV/PGS
    Codec ID/Info               : Picture based subtitle format used on BDs/HD-DVDs
    Duration                    : 1 h 45 min
    Bit rate                    : 33.0 kb/s
    Count of elements           : 2246
    Stream size                 : 24.8 MiB (0%)
    Title                       : Sub_Eng [PGS]
    Language                    : English
    Default                     : No
    Forced                      : No

    Text #3
    ID                          : 6
    Format                      : UTF-8
    Codec ID                    : S_TEXT/UTF8
    Codec ID/Info               : UTF-8 Plain Text
    Duration                    : 1 h 40 min
    Bit rate                    : 5 b/s
    Count of elements           : 116
    Stream size                 : 4.01 KiB (0%)
    Title                       : Sub_Forzados
    Language                    : Spanish
    Default                     : No
    Forced                      : No

    Text #4
    ID                          : 7
    Format                      : UTF-8
    Codec ID                    : S_TEXT/UTF8
    Codec ID/Info               : UTF-8 Plain Text
    Duration                    : 1 h 44 min
    Bit rate                    : 40 b/s
    Count of elements           : 931
    Stream size                 : 31.1 KiB (0%)
    Title                       : Sub_Esp
    Language                    : Spanish
    Default                     : No
    Forced                      : No

    Menu
    00:00:00.000                : en:Chapter 01
    00:06:25.385                : en:Chapter 02
    00:12:34.545                : en:Chapter 03
    00:18:45.999                : en:Chapter 04
    00:24:21.376                : en:Chapter 05
    00:26:55.113                : en:Chapter 06
    00:32:44.504                : en:Chapter 07
    00:38:27.596                : en:Chapter 08
    00:43:36.864                : en:Chapter 09
    00:47:17.626                : en:Chapter 10
    00:52:14.464                : en:Chapter 11
    01:00:01.598                : en:Chapter 12
    01:06:42.373                : en:Chapter 13
    01:11:29.576                : en:Chapter 14
    01:15:18.222                : en:Chapter 15
    01:19:40.859                : en:Chapter 16
    01:23:32.048                : en:Chapter 17
    01:31:46.542                : en:Chapter 18
    01:38:12.011                : en:Chapter 19
    01:45:00.877                : en:Chapter 20

  • Peso: 30.2 GiB

Sinopsis

Descargar La Rebelion (2019) REMUX 1080p Latino. En un barrio de Chicago, casi una década después de una ocupación por una fuerza extraterrestre, ‘Nación cautiva’ explora las vidas de ambos lados del conflicto: los colaboracionistas y los disidentes. Hace 10 años, los aliens arrebataron el planeta a los humanos. Hoy, un grupo de rebeldes intentará comenzar a recuperarlo.

Ficha técnica

Video trailer de la película

Enlaces de descarga

Rip de Bluray

Descargar La Rebelion (2019) REMUX 1080p Latino




Aportes de DPeliculasHDmega la pass es:dpeliculashdmega.org Aportes de CinemaniaHD la pass es:cinemaniahdd.com Aportes recientes:cinemaniahdd.net
Guardado en : Ciencia ficción , Remux , Suspenso

Películas relacionadas

  • Ghostbusters: El Legado (2021) REMUX 1080p Latino

    Ghostbusters: El Legado (2021) REMUX 1080p Latino

    2021
    Ghostbusters: El Legado (2021) REMUX 1080p Latino

    2h 4m 2021

    Descargar Ghostbusters: El Legado (2021) REMUX 1080p Latino. Una madre soltera y sus dos hijos se van...

    Director: Jason Reitman

    Género: Aventura

    Actores: Tracy Letts

  • Footloose (2011) REMUX 1080p Latino-CMHDD

    Footloose (2011) REMUX 1080p Latino-CMHDD

    2011
    Footloose (2011) REMUX 1080p Latino-CMHDD

    1h 53m 2011

    Descargar Footloose (2011) REMUX 1080p Latino-CMHDD. Remake de la película homónima que narra la historia...

    Director: Rosemary C. Cremona

    Género: Drama

    Actores: Ziah Colon

descargar La Rebelion (2019) REMUX 1080p Latino Full 1080p 1080p gratis, La Rebelion (2019) REMUX 1080p Latino Full 1080p mega 1 link, La Rebelion (2019) REMUX 1080p Latino Full 1080p pelicula completa, descargar La Rebelion (2019) REMUX 1080p Latino Full 1080p gratis en mega.

La Rebelion (2019) REMUX 1080p Latino pelicula full hd, La Rebelion (2019) REMUX 1080p Latino mega latino, La Rebelion (2019) REMUX 1080p Latino 4k latino, La Rebelion (2019) REMUX 1080p Latino pelicula completa, La Rebelion (2019) REMUX 1080p Latino descargar gratis, descargar La Rebelion (2019) REMUX 1080p Latino pelicula latino, La Rebelion (2019) REMUX 1080p Latino 1 link mega, La Rebelion (2019) REMUX 1080p Latino 1 link google drive, La Rebelion (2019) REMUX 1080p Latino hd 1080p latino.
Comentarios 0