×

¿Problemas para descargar con Mozilla, EDGE? Deshabilita la opción "Abrir vinculos en una pestaña nueva" tal como lo muestra ésta imagen.

Captain Fantastic (2016) REMUX 1080p Latino – CMHDD

194 vistas

Información de Captain Fantastic (2016) REMUX 1080p Latino – CMHDD

Datos de la película

  • Calidad: Full 1080p
  • Audio: Español Latino AC3 5.1 DVD - Ingles DTS 5.1 BLURAY
  • Subtitulos: Español Latino PGS
  • Resolución: 1920x1080p
  • Formato: MKV
  • Codec: H.264
  • Encoder: Dracarys
  • Mediainfo: Clic para Mostrar Datos Ver
  • Format                      : Matroska
    Format version              : Version 4
    File size                   : 25.3 GiB
    Duration                    : 1 h 59 min
    Overall bit rate mode       : Variable
    Overall bit rate            : 30.3 Mb/s
    Movie name                  : Captain Fantastic (2016) REMUX 1080p Latino - CMHDD
    Encoded date                : UTC 2021-06-21 07:36:13
    Writing application         : mkvmerge v56.1.0 ('My Friend') 64-bit
    Writing library             : libebml v1.4.2 + libmatroska v1.6.4
    Cover                       : Yes
    Attachments                 : cover.jpg

    Video
    ID                          : 1
    ID in the original source m : 4113 (0x1011)
    Format                      : AVC
    Format/Info                 : Advanced Video Codec
    Format profile              : High@L4.1
    Format settings             : CABAC / 2 Ref Frames
    Format settings, CABAC      : Yes
    Format settings, Reference  : 2 frames
    Codec ID                    : V_MPEG4/ISO/AVC
    Duration                    : 1 h 59 min
    Bit rate mode               : Variable
    Bit rate                    : 26.6 Mb/s
    Width                       : 1 920 pixels
    Height                      : 1 080 pixels
    Display aspect ratio        : 16:9
    Frame rate mode             : Constant
    Frame rate                  : 23.976 (24000/1001) FPS
    Color space                 : YUV
    Chroma subsampling          : 4:2:0
    Bit depth                   : 8 bits
    Scan type                   : Progressive
    Bits/(Pixel*Frame)          : 0.535
    Stream size                 : 22.2 GiB (88%)
    Default                     : Yes
    Forced                      : No
    Original source medium      : Blu-ray

    Audio #1
    ID                          : 2
    Format                      : AC-3
    Format/Info                 : Audio Coding 3
    Commercial name             : Dolby Digital
    Codec ID                    : A_AC3
    Duration                    : 1 h 59 min
    Bit rate mode               : Constant
    Bit rate                    : 448 kb/s
    Channel(s)                  : 6 channels
    Channel layout              : L R C LFE Ls Rs
    Sampling rate               : 48.0 kHz
    Frame rate                  : 31.250 FPS (1536 SPF)
    Compression mode            : Lossy
    Stream size                 : 383 MiB (1%)
    Language                    : Spanish
    Service kind                : Complete Main
    Default                     : Yes
    Forced                      : No

    Audio #2
    ID                          : 3
    ID in the original source m : 4352 (0x1100)
    Format                      : DTS XLL
    Format/Info                 : Digital Theater Systems
    Commercial name             : DTS-HD Master Audio
    Codec ID                    : A_DTS
    Duration                    : 1 h 59 min
    Bit rate mode               : Variable
    Bit rate                    : 3 250 kb/s
    Channel(s)                  : 6 channels
    Channel layout              : C L R Ls Rs LFE
    Sampling rate               : 48.0 kHz
    Frame rate                  : 93.750 FPS (512 SPF)
    Bit depth                   : 24 bits
    Compression mode            : Lossless
    Stream size                 : 2.71 GiB (11%)
    Language                    : English
    Default                     : No
    Forced                      : No
    Original source medium      : Blu-ray

    Text
    ID                          : 4
    ID in the original source m : 4609 (0x1201)
    Format                      : PGS
    Muxing mode                 : zlib
    Codec ID                    : S_HDMV/PGS
    Codec ID/Info               : Picture based subtitle format used on BDs/HD-DVDs
    Duration                    : 1 h 54 min
    Bit rate                    : 26.2 kb/s
    Count of elements           : 2418
    Stream size                 : 21.6 MiB (0%)
    Language                    : Spanish
    Default                     : No
    Forced                      : No
    Original source medium      : Blu-ray

    Menu
    00:00:00.000                : Chapter 01
    00:05:14.272                : Chapter 02
    00:11:12.046                : Chapter 03
    00:17:34.219                : Chapter 04
    00:25:20.727                : Chapter 05
    00:31:37.186                : Chapter 06
    00:37:41.509                : Chapter 07
    00:40:25.548                : Chapter 08
    00:46:10.601                : Chapter 09
    00:54:03.448                : Chapter 10
    00:59:34.696                : Chapter 11
    01:08:21.430                : Chapter 12
    01:14:08.485                : Chapter 13
    01:20:18.647                : Chapter 14
    01:24:30.774                : Chapter 15
    01:30:19.330                : Chapter 16
    01:36:52.807                : Chapter 17
    01:43:03.719                : Chapter 18
    01:48:23.163                : Chapter 19
    01:52:47.343                : Chapter 20

  • Peso: 25.3 GiB

Sinopsis

Ben es un padre que ha pasado diez años viviendo en los remotos bosques situados al noroeste del Pacífico criando a sus seis hijos. Sin embargo un día la familia debe abandonar su modo de vida en la naturaleza y volver a la civilización. Asimilar su nueva situación y adaptarse de nuevo a la sociedad moderna no les va a resultar nada sencillo.

Ficha técnica

Video trailer de la película

Enlaces de descarga

Rip de Bluray

Descargar Captain Fantastic (2016) REMUX 1080p Latino – CMHDD


Aportes de DPeliculasHDmega la pass es:dpeliculashdmega.org Aportes de CinemaniaHD la pass es:cinemaniahdd.com
Guardado en : Aventura , Drama

Películas relacionadas

  • Jaula Mental (2022) HD 1080p Latino

    Jaula Mental (2022) HD 1080p Latino

    2022
    Jaula Mental (2022) HD 1080p Latino

    1h 47m 2022

    Descargar Jaula Mental (2022) HD 1080p Latino. Cuando un asesino que imita otros crímenes comienza a...

    Director: Mauro Borrelli

    Género: Crimen

    Actores: Victoria Fox

  • Jaula Mental (2022) PLACEBO Full HD 1080p Latino

    Jaula Mental (2022) PLACEBO Full HD 1080p Latino

    2022
    Jaula Mental (2022) PLACEBO Full HD 1080p Latino

    1h 47m 2022

    Descargar Jaula Mental (2022) PLACEBO Full HD 1080p Latino. Cuando un asesino que imita otros crímenes...

    Director: Mauro Borrelli

    Género: Crimen

    Actores: Victoria Fox

  • Jaula Mental (2022) REMUX 1080p Latino

    Jaula Mental (2022) REMUX 1080p Latino

    2022
    Jaula Mental (2022) REMUX 1080p Latino

    1h 47m 2022

    Descargar Jaula Mental (2022) REMUX 1080p Latino. Cuando un asesino que imita otros crímenes comienza...

    Director: Mauro Borrelli

    Género: Crimen

    Actores: Victoria Fox

  • Transfusion (2023) HD 1080p Latino

    Transfusion (2023) HD 1080p Latino

    2023
    Transfusion (2023) HD 1080p Latino

    1h 45m 2023

    Descargar Transfusion (2023) HD 1080p Latino. Un antiguo agente de las Fuerzas Especiales se ve empujado...

    Director: Matt Nable

    Género: Crimen

    Actores: Trystan Go

  • Transfusion (2023) PLACEBO Full HD 1080p Latino

    Transfusion (2023) PLACEBO Full HD 1080p Latino

    2023
    Transfusion (2023) PLACEBO Full HD 1080p Latino

    1h 45m 2023

    Descargar Transfusion (2023) PLACEBO Full HD 1080p Latino. Un antiguo agente de las Fuerzas Especiales...

    Director: Matt Nable

    Género: Crimen

    Actores: Trystan Go

descargar Captain Fantastic (2016) REMUX 1080p Latino – CMHDD Full 1080p 1080p gratis, Captain Fantastic (2016) REMUX 1080p Latino – CMHDD Full 1080p mega 1 link, Captain Fantastic (2016) REMUX 1080p Latino – CMHDD Full 1080p pelicula completa, descargar Captain Fantastic (2016) REMUX 1080p Latino – CMHDD Full 1080p gratis en mega.

Captain Fantastic (2016) REMUX 1080p Latino – CMHDD pelicula full hd, Captain Fantastic (2016) REMUX 1080p Latino – CMHDD mega latino, Captain Fantastic (2016) REMUX 1080p Latino – CMHDD 4k latino, Captain Fantastic (2016) REMUX 1080p Latino – CMHDD pelicula completa, Captain Fantastic (2016) REMUX 1080p Latino – CMHDD descargar gratis, descargar Captain Fantastic (2016) REMUX 1080p Latino – CMHDD pelicula latino, Captain Fantastic (2016) REMUX 1080p Latino – CMHDD 1 link mega, Captain Fantastic (2016) REMUX 1080p Latino – CMHDD 1 link google drive, Captain Fantastic (2016) REMUX 1080p Latino – CMHDD hd 1080p latino.
Comentarios 0