×

¿Problemas para descargar con Mozilla, EDGE? Deshabilita la opción "Abrir vinculos en una pestaña nueva" tal como lo muestra ésta imagen.

Captain America Civil War (2016) [IMAX] WEB-DL 4K HDR Latino – CMHDD

91 vistas

Información de Captain America Civil War (2016) [IMAX] WEB-DL 4K HDR Latino – CMHDD

Datos de la película

  • Calidad: WEBDL
  • Audio: Español Latino AC3 5.1 BLURAY - Ingles DTS-HD Master 7.1 BLURAY
  • Subtitulos: Español Latino SRT- FORZADOS SRT
  • Resolución: 3840x1600p
  • Formato: MKV
  • Codec: H.264
  • Encoder: Dracarys
  • Mediainfo: Clic para Mostrar Datos Ver
  • Format                      : Matroska
    Format version              : Version 4
    File size                   : 23.3 GiB
    Duration                    : 2 h 27 min
    Overall bit rate mode       : Variable
    Overall bit rate            : 22.6 Mb/s
    Movie name                  : Captain America: Civil War (2016) [IMAX] WEB-DL 4K HDR Latino - CMHDD
    Encoded date                : UTC 2023-12-18 04:28:46
    Writing application         : mkvmerge v47.0.0 ('Black Flag') 64-bit
    Writing library             : libebml v1.3.10 + libmatroska v1.5.2

    Video
    ID                          : 1
    Format                      : HEVC
    Format/Info                 : High Efficiency Video Coding
    Format profile              : Main 10@L5@High
    HDR format                  : SMPTE ST 2086, HDR10 compatible
    Codec ID                    : V_MPEGH/ISO/HEVC
    Duration                    : 2 h 27 min
    Bit rate                    : 16.5 Mb/s
    Width                       : 3 840 pixels
    Height                      : 2 160 pixels
    Display aspect ratio        : 16:9
    Frame rate mode             : Constant
    Frame rate                  : 23.976 (24000/1001) FPS
    Color space                 : YUV
    Chroma subsampling          : 4:2:0
    Bit depth                   : 10 bits
    Bits/(Pixel*Frame)          : 0.083
    Stream size                 : 17.0 GiB (73%)
    Language                    : English
    Default                     : Yes
    Forced                      : No
    Color range                 : Limited
    Color primaries             : BT.2020
    Transfer characteristics    : PQ
    Matrix coefficients         : BT.2020 non-constant
    Mastering display color pri : Display P3
    Mastering display luminance : min: 0.0050 cd/m2, max: 4000 cd/m2

    Audio #1
    ID                          : 2
    Format                      : E-AC-3
    Format/Info                 : Enhanced AC-3
    Commercial name             : Dolby Digital Plus
    Codec ID                    : A_EAC3
    Duration                    : 2 h 27 min
    Bit rate mode               : Constant
    Bit rate                    : 768 kb/s
    Channel(s)                  : 6 channels
    Channel layout              : L R C LFE Ls Rs
    Sampling rate               : 48.0 kHz
    Frame rate                  : 31.250 FPS (1536 SPF)
    Compression mode            : Lossy
    Delay relative to video     : 16 ms
    Stream size                 : 811 MiB (3%)
    Language                    : Spanish
    Service kind                : Complete Main
    Default                     : Yes
    Forced                      : No

    Audio #2
    ID                          : 3
    Format                      : AC-3
    Format/Info                 : Audio Coding 3
    Commercial name             : Dolby Digital
    Codec ID                    : A_AC3
    Duration                    : 2 h 27 min
    Bit rate mode               : Constant
    Bit rate                    : 640 kb/s
    Channel(s)                  : 6 channels
    Channel layout              : L R C LFE Ls Rs
    Sampling rate               : 48.0 kHz
    Frame rate                  : 31.250 FPS (1536 SPF)
    Compression mode            : Lossy
    Stream size                 : 676 MiB (3%)
    Language                    : English
    Service kind                : Complete Main
    Default                     : No
    Forced                      : No

    Audio #3
    ID                          : 4
    Format                      : DTS XLL
    Format/Info                 : Digital Theater Systems
    Commercial name             : DTS-HD Master Audio
    Codec ID                    : A_DTS
    Duration                    : 2 h 27 min
    Bit rate mode               : Variable
    Bit rate                    : 4 700 kb/s
    Channel(s)                  : 8 channels
    Channel layout              : C L R LFE Lb Rb Lss Rss
    Sampling rate               : 48.0 kHz
    Frame rate                  : 93.750 FPS (512 SPF)
    Bit depth                   : 24 bits
    Compression mode            : Lossless
    Delay relative to video     : 5 ms
    Stream size                 : 4.85 GiB (21%)
    Language                    : English
    Default                     : No
    Forced                      : No

    Text #1
    ID                          : 5
    Format                      : UTF-8
    Codec ID                    : S_TEXT/UTF8
    Codec ID/Info               : UTF-8 Plain Text
    Duration                    : 2 h 26 min
    Bit rate                    : 1 b/s
    Frame rate                  : 0.008 FPS
    Count of elements           : 68
    Stream size                 : 1.37 KiB (0%)
    Title                       : Forzado
    Language                    : Spanish
    Default                     : Yes
    Forced                      : No

    Text #2
    ID                          : 6
    Format                      : UTF-8
    Codec ID                    : S_TEXT/UTF8
    Codec ID/Info               : UTF-8 Plain Text
    Duration                    : 2 h 26 min
    Bit rate                    : 50 b/s
    Frame rate                  : 0.194 FPS
    Count of elements           : 1705
    Stream size                 : 54.5 KiB (0%)
    Language                    : Spanish
    Default                     : No
    Forced                      : No

    Text #3
    ID                          : 7
    Format                      : PGS
    Muxing mode                 : zlib
    Codec ID                    : S_HDMV/PGS
    Codec ID/Info               : Picture based subtitle format used on BDs/HD-DVDs
    Duration                    : 2 h 26 min
    Bit rate                    : 31.1 kb/s
    Frame rate                  : 0.388 FPS
    Count of elements           : 3410
    Stream size                 : 32.5 MiB (0%)
    Language                    : Spanish
    Default                     : No
    Forced                      : No

    Menu
    00:00:00.000                : en:Prologue
    00:09:01.958                : en:Lagos
    00:13:04.992                : en:I'm Right Where I Want to Be
    00:21:03.345                : en:The Sokovia Accords
    00:27:53.380                : en:We Need to Be Put in Check
    00:31:57.290                : en:Peggy's Funeral
    00:35:08.397                : en:Supporting the Initiative
    00:42:58.450                : en:It Always Ends in a Fight
    00:52:04.621                : en:Bucky's Evaluation
    01:05:39.101                : en:Breakout
    01:16:41.638                : en:Queens
    01:22:28.777                : en:Hawkeye Returns
    01:29:29.489                : en:You're After the Wrong Guy
    01:34:09.769                : en:We Fight
    01:45:38.582                : en:We Played This Wrong
    01:55:54.322                : en:Zemo Revealed
    02:02:35.056                : en:Steve vs. Tony
    02:12:14.176                : en:We All Need Family
    02:18:29.384                : en:End Credits

     

  • Peso: 23.3 GiB

Sinopsis

Continúa la historia de “Avengers: Age of Ultron”, con Steve Rogers liderando un nuevo equipo de Vengadores en su esfuerzo por proteger a la humanidad. Tras otro incidente internacional relacionado con los Vengadores que ocasiona daños colaterales, la presión política fuerza a crear un sistema de registro y un cuerpo gubernamental para determinar cuándo se requiere los servicios del equipo. El nuevo status quo divide a los Vengadores mientras intentan salvar al mundo de un nuevo y perverso villano.

Ficha técnica

Video trailer de la película

Enlaces de descarga

Rip de Bluray

Descargar Captain America Civil War (2016) [IMAX] WEB-DL 4K HDR Latino – CMHDD




Aportes de DPeliculasHDmega la pass es:dpeliculashdmega.org Aportes de CinemaniaHD la pass es:cinemaniahdd.com Aportes recientes:cinemaniahdd.net
Guardado en : Acción , Aventura , Ciencia ficción

Películas relacionadas

descargar Captain America Civil War (2016) [IMAX] WEB-DL 4K HDR Latino – CMHDD WEBDL 1080p gratis, Captain America Civil War (2016) [IMAX] WEB-DL 4K HDR Latino – CMHDD WEBDL mega 1 link, Captain America Civil War (2016) [IMAX] WEB-DL 4K HDR Latino – CMHDD WEBDL pelicula completa, descargar Captain America Civil War (2016) [IMAX] WEB-DL 4K HDR Latino – CMHDD WEBDL gratis en mega.

Captain America Civil War (2016) [IMAX] WEB-DL 4K HDR Latino – CMHDD pelicula full hd, Captain America Civil War (2016) [IMAX] WEB-DL 4K HDR Latino – CMHDD mega latino, Captain America Civil War (2016) [IMAX] WEB-DL 4K HDR Latino – CMHDD 4k latino, Captain America Civil War (2016) [IMAX] WEB-DL 4K HDR Latino – CMHDD pelicula completa, Captain America Civil War (2016) [IMAX] WEB-DL 4K HDR Latino – CMHDD descargar gratis, descargar Captain America Civil War (2016) [IMAX] WEB-DL 4K HDR Latino – CMHDD pelicula latino, Captain America Civil War (2016) [IMAX] WEB-DL 4K HDR Latino – CMHDD 1 link mega, Captain America Civil War (2016) [IMAX] WEB-DL 4K HDR Latino – CMHDD 1 link google drive, Captain America Civil War (2016) [IMAX] WEB-DL 4K HDR Latino – CMHDD hd 1080p latino.
Comentarios 0