×

¿Problemas para descargar con Mozilla, EDGE? Deshabilita la opción "Abrir vinculos en una pestaña nueva" tal como lo muestra ésta imagen.

Capote (2005) REMUX 1080p Latino – CMHDD

202 vistas

Información de Capote (2005) REMUX 1080p Latino – CMHDD

Datos de la película

  • Calidad: Full 1080p
  • Audio: Español Latino AC3 5.1 BLURAY - Ingles AC3 5.1 BLURAY
  • Subtitulos: Español Latino PGS
  • Resolución: 1920x1080p
  • Formato: MKV
  • Codec: H.264
  • Encoder: Dracarys
  • Mediainfo: Clic para Mostrar Datos Ver
  • Format                      : Matroska
    Format version              : Version 4
    File size                   : 24.4 GiB
    Duration                    : 1 h 54 min
    Overall bit rate mode       : Variable
    Overall bit rate            : 30.5 Mb/s
    Movie name                  : Capote (2005) REMUX 1080p Latino - CMHDD
    Encoded date                : UTC 2021-09-12 00:40:31
    Writing application         : mkvmerge v17.0.0 ('Be Ur Friend') 64-bit
    Writing library             : libebml v1.3.5 + libmatroska v1.4.8

    Video
    ID                          : 1
    Format                      : AVC
    Format/Info                 : Advanced Video Codec
    Format profile              : High@L4.1
    Format settings             : CABAC / 2 Ref Frames
    Format settings, CABAC      : Yes
    Format settings, Reference  : 2 frames
    Codec ID                    : V_MPEG4/ISO/AVC
    Duration                    : 1 h 54 min
    Bit rate mode               : Variable
    Bit rate                    : 27.9 Mb/s
    Width                       : 1 920 pixels
    Height                      : 1 080 pixels
    Display aspect ratio        : 16:9
    Frame rate mode             : Constant
    Frame rate                  : 23.976 (24000/1001) FPS
    Color space                 : YUV
    Chroma subsampling          : 4:2:0
    Bit depth                   : 8 bits
    Scan type                   : Progressive
    Bits/(Pixel*Frame)          : 0.562
    Stream size                 : 22.3 GiB (91%)
    Default                     : Yes
    Forced                      : No

    Audio #1
    ID                          : 2
    Format                      : MLP FBA
    Format/Info                 : Meridian Lossless Packing FBA
    Commercial name             : Dolby TrueHD
    Codec ID                    : A_TRUEHD
    Duration                    : 1 h 54 min
    Bit rate mode               : Variable
    Bit rate                    : 1 226 kb/s
    Maximum bit rate            : 2 772 kb/s
    Channel(s)                  : 6 channels
    Channel layout              : L R C LFE Ls Rs
    Sampling rate               : 48.0 kHz
    Frame rate                  : 1 200.000 FPS (40 SPF)
    Compression mode            : Lossless
    Stream size                 : 1 002 MiB (4%)
    Language                    : English
    Default                     : No
    Forced                      : No

    Audio #2
    ID                          : 3
    Format                      : AC-3
    Format/Info                 : Audio Coding 3
    Commercial name             : Dolby Digital
    Codec ID                    : A_AC3
    Duration                    : 1 h 54 min
    Bit rate mode               : Constant
    Bit rate                    : 640 kb/s
    Channel(s)                  : 6 channels
    Channel layout              : L R C LFE Ls Rs
    Sampling rate               : 48.0 kHz
    Frame rate                  : 31.250 FPS (1536 SPF)
    Compression mode            : Lossy
    Stream size                 : 523 MiB (2%)
    Language                    : English
    Service kind                : Complete Main
    Default                     : No
    Forced                      : No

    Audio #3
    ID                          : 4
    Format                      : AC-3
    Format/Info                 : Audio Coding 3
    Commercial name             : Dolby Digital
    Codec ID                    : A_AC3
    Duration                    : 1 h 54 min
    Bit rate mode               : Constant
    Bit rate                    : 640 kb/s
    Channel(s)                  : 6 channels
    Channel layout              : L R C LFE Ls Rs
    Sampling rate               : 48.0 kHz
    Frame rate                  : 31.250 FPS (1536 SPF)
    Compression mode            : Lossy
    Stream size                 : 523 MiB (2%)
    Language                    : Spanish
    Service kind                : Complete Main
    Default                     : Yes
    Forced                      : No

    Text #1
    ID                          : 5
    Format                      : PGS
    Muxing mode                 : zlib
    Codec ID                    : S_HDMV/PGS
    Codec ID/Info               : Picture based subtitle format used on BDs/HD-DVDs
    Duration                    : 1 h 47 min
    Bit rate                    : 31.7 kb/s
    Count of elements           : 2304
    Stream size                 : 24.4 MiB (0%)
    Language                    : Spanish
    Default                     : No
    Forced                      : No

    Text #2
    ID                          : 6
    Format                      : PGS
    Muxing mode                 : zlib
    Codec ID                    : S_HDMV/PGS
    Codec ID/Info               : Picture based subtitle format used on BDs/HD-DVDs
    Duration                    : 1 h 49 min
    Bit rate                    : 56.5 kb/s
    Count of elements           : 3557
    Stream size                 : 44.1 MiB (0%)
    Language                    : Spanish
    Default                     : No
    Forced                      : No

    Menu
    00:00:00.000                : en:Chapter 1
    00:08:10.114                : en:Chapter 2
    00:15:29.762                : en:Chapter 3
    00:18:58.887                : en:Chapter 4
    00:27:13.048                : en:Chapter 5
    00:31:42.025                : en:Chapter 6
    00:39:09.555                : en:Chapter 7
    00:43:31.275                : en:Chapter 8
    00:49:24.920                : en:Chapter 9
    00:53:33.251                : en:Chapter 10
    01:02:17.024                : en:Chapter 11
    01:13:23.565                : en:Chapter 12
    01:19:33.935                : en:Chapter 13
    01:28:04.612                : en:Chapter 14
    01:35:08.703                : en:Chapter 15
    01:43:33.040                : en:Chapter 16

  • Peso: 24.4 GiB

Sinopsis

Capote es una película sobre escritor Truman Capote y la investigación que tuvo que realizar para escribir «A sangre fría», un libro basado en hechos reales. Philip Seymour Hoffman ganó un Oscar al mejor actor por su interpretación de Truman Capote.

Ficha técnica

Video trailer de la película

Enlaces de descarga

Rip de Bluray

Descargar Capote (2005) REMUX 1080p Latino – CMHDD


Aportes de DPeliculasHDmega la pass es:dpeliculashdmega.org Aportes de CinemaniaHD la pass es:cinemaniahdd.com
Guardado en : Crimen , Drama

Películas relacionadas

  • Stromboli (2022) NF WEB-DL 1080p Latino

    Stromboli (2022) NF WEB-DL 1080p Latino

    2022
    Stromboli (2022) NF WEB-DL 1080p Latino

    1h 26m 2022

    Descargar Stromboli (2022) NF WEB-DL 1080p Latino. Sara, una mujer que se ha divorciado recientemente,...

    Director: Michiel van Erp

    Género: Drama

    Actores: Tim McInnerny

  • Infiesto (2023) NF WEB-DL 1080p Castellano

    Infiesto (2023) NF WEB-DL 1080p Castellano

    2023
    Infiesto (2023) NF WEB-DL 1080p Castellano

    1h 36m 2023

    Descargar Infiesto (2023) NF WEB-DL 1080p Castellano. Mientras el coronavirus trastoca sus vidas, dos...

    Director: Patxi Amezcua

    Género: Crimen

    Actores: Luis Zahera

  • Espiritu Libre (2023) NF WEB-DL 1080p Latino

    Espiritu Libre (2023) NF WEB-DL 1080p Latino

    2023
    Espiritu Libre (2023) NF WEB-DL 1080p Latino

    1h 49m 2023

    Descargar Espiritu Libre (2023) NF WEB-DL 1080p Latino. La película se basa en la increíble historia...

    Director: Sarah Spillane

    Género: Aventura

    Actores: Vivien Turner

  • Juego de espías (2001) 1080p Latino

    Juego de espías (2001) 1080p Latino

    2001
    Juego de espías (2001) 1080p Latino

    2h 6m 2001

    Descargar Juego de espías (2001) 1080p Latino. Corre el año 1991, y al veterano agente de la CIA Nathan...

    Director: Tony Scott

    Género: Acción

    Actores: Zsolt Zágoni

descargar Capote (2005) REMUX 1080p Latino – CMHDD Full 1080p 1080p gratis, Capote (2005) REMUX 1080p Latino – CMHDD Full 1080p mega 1 link, Capote (2005) REMUX 1080p Latino – CMHDD Full 1080p pelicula completa, descargar Capote (2005) REMUX 1080p Latino – CMHDD Full 1080p gratis en mega.

Capote (2005) REMUX 1080p Latino – CMHDD pelicula full hd, Capote (2005) REMUX 1080p Latino – CMHDD mega latino, Capote (2005) REMUX 1080p Latino – CMHDD 4k latino, Capote (2005) REMUX 1080p Latino – CMHDD pelicula completa, Capote (2005) REMUX 1080p Latino – CMHDD descargar gratis, descargar Capote (2005) REMUX 1080p Latino – CMHDD pelicula latino, Capote (2005) REMUX 1080p Latino – CMHDD 1 link mega, Capote (2005) REMUX 1080p Latino – CMHDD 1 link google drive, Capote (2005) REMUX 1080p Latino – CMHDD hd 1080p latino.