×

¿Problemas para descargar con Mozilla, EDGE? Deshabilita la opción "Abrir vinculos en una pestaña nueva" tal como lo muestra ésta imagen.

Capitana Marvel (2019) Full 1080p Latino

13.364 vistas

Información de Capitana Marvel (2019) Full 1080p Latino

capitana marvel 53727 poster

Datos de la película

  • Calidad: Full 1080p
  • Audio: Español Latino AC3 5.1 BLURAY - Ingles DTS 5.1 BLURAY
  • Subtitulos: Español Latino PGS - Ingles PGS
  • Resolución: 1920x1080p
  • Formato: MKV
  • Codec: H.264
  • Encoder: CinefiloCool
  • Mediainfo: Clic para Mostrar Datos Ver
  • Capitana Marvel (2019) Full 1080p Latino [PLACEBO].mkv
    Format                      : Matroska
    Format version              : Version 4
    File size                   : 4.92 GiB
    Duration                    : 2 h 3 min
    Overall bit rate            : 5 697 kb/s
    Movie name                  : CinemaniaHDD.Net
    Encoded date                : UTC 2019-06-02 00:38:12
    Writing application         : mkvmerge v30.1.0 ('Forever And More') 64-bit
    Writing library             : libebml v1.3.6 + libmatroska v1.4.9
    Attachments                 : CINEMANIAHD.png

    Video
    ID                          : 1
    Format                      : AVC
    Format/Info                 : Advanced Video Codec
    Format profile              : High@L4.1
    Format settings             : CABAC / 4 Ref Frames
    Format settings, CABAC      : Yes
    Format settings, ReFrames   : 4 frames
    Codec ID                    : V_MPEG4/ISO/AVC
    Duration                    : 2 h 3 min
    Bit rate                    : 3 518 kb/s
    Width                       : 1 920 pixels
    Height                      : 1 080 pixels
    Display aspect ratio        : 16:9
    Frame rate mode             : Constant
    Frame rate                  : 23.976 (24000/1001) FPS
    Color space                 : YUV
    Chroma subsampling          : 4:2:0
    Bit depth                   : 8 bits
    Scan type                   : Progressive
    Bits/(Pixel*Frame)          : 0.071
    Stream size                 : 3.04 GiB (62%)
    Title                       : Full HD1080p [Bluray]
    Writing library             : x264 core 157 r2935 545de2f
    Encoding settings           : cabac=1 / ref=4 / deblock=1:0:0 / analyse=0x3:0x133 / me=tesa / subme=11 / psy=1 / psy_rd=1.00:0.00 / mixed_ref=1 / me_range=24 / chroma_me=1 / trellis=2 / 8x8dct=1 / cqm=0 / deadzone=21,11 / fast_pskip=0 / chroma_qp_offset=-2 / threads=34 / lookahead_threads=8 / sliced_threads=0 / nr=0 / decimate=1 / interlaced=0 / bluray_compat=0 / constrained_intra=0 / bframes=16 / b_pyramid=2 / b_adapt=2 / b_bias=0 / direct=3 / weightb=1 / open_gop=0 / weightp=2 / keyint=240 / keyint_min=24 / scenecut=40 / intra_refresh=0 / rc_lookahead=60 / rc=crf / mbtree=1 / crf=19.0 / qcomp=0.60 / qpmin=0 / qpmax=69 / qpstep=4 / vbv_maxrate=62500 / vbv_bufsize=78125 / crf_max=0.0 / nal_hrd=none / filler=0 / ip_ratio=1.40 / aq=1:1.00
    Default                     : Yes
    Forced                      : No
    Color range                 : Limited
    Color primaries             : BT.709
    Transfer characteristics    : BT.709
    Matrix coefficients         : BT.709

    Audio #1
    ID                          : 2
    Format                      : AC-3
    Format/Info                 : Audio Coding 3
    Commercial name             : Dolby Digital
    Codec ID                    : A_AC3
    Duration                    : 2 h 3 min
    Bit rate mode               : Constant
    Bit rate                    : 640 kb/s
    Channel(s)                  : 6 channels
    Channel layout              : L R C LFE Ls Rs
    Sampling rate               : 48.0 kHz
    Frame rate                  : 31.250 FPS (1536 SPF)
    Bit depth                   : 16 bits
    Compression mode            : Lossy
    Stream size                 : 566 MiB (11%)
    Title                       : AC3_5.1_Bluray_Esp
    Language                    : Spanish
    Service kind                : Complete Main
    Default                     : Yes
    Forced                      : Yes

    Audio #2
    ID                          : 3
    Format                      : DTS
    Format/Info                 : Digital Theater Systems
    Codec ID                    : A_DTS
    Duration                    : 2 h 3 min
    Bit rate mode               : Constant
    Bit rate                    : 1 509 kb/s
    Channel(s)                  : 6 channels
    Channel layout              : C L R Ls Rs LFE
    Sampling rate               : 48.0 kHz
    Frame rate                  : 93.750 FPS (512 SPF)
    Bit depth                   : 24 bits
    Compression mode            : Lossy
    Stream size                 : 1.30 GiB (26%)
    Title                       : DTS_5.1_Bluray_Eng
    Language                    : English
    Default                     : No
    Forced                      : No

    Text #1
    ID                          : 4
    Format                      : PGS
    Muxing mode                 : zlib
    Codec ID                    : S_HDMV/PGS
    Codec ID/Info               : Picture based subtitle format used on BDs/HD-DVDs
    Duration                    : 1 h 55 min
    Bit rate                    : 466 b/s
    Count of elements           : 32
    Stream size                 : 394 KiB (0%)
    Title                       : Sub_Forzados [PGS]
    Language                    : Spanish
    Default                     : Yes
    Forced                      : Yes

    Text #2
    ID                          : 5
    Format                      : PGS
    Muxing mode                 : zlib
    Codec ID                    : S_HDMV/PGS
    Codec ID/Info               : Picture based subtitle format used on BDs/HD-DVDs
    Duration                    : 2 h 2 min
    Bit rate                    : 28.3 kb/s
    Count of elements           : 2614
    Stream size                 : 24.7 MiB (0%)
    Title                       : Sub_Esp [PGS]
    Language                    : Spanish
    Default                     : No
    Forced                      : No

    Text #3
    ID                          : 6
    Format                      : PGS
    Muxing mode                 : zlib
    Codec ID                    : S_HDMV/PGS
    Codec ID/Info               : Picture based subtitle format used on BDs/HD-DVDs
    Duration                    : 2 h 3 min
    Bit rate                    : 58.4 kb/s
    Count of elements           : 3954
    Stream size                 : 51.5 MiB (1%)
    Title                       : Sub_Eng [PGS]
    Language                    : English
    Default                     : No
    Forced                      : No

    Menu
    00:00:00.000                : :00:00:00.000
    00:06:52.120                : :00:06:52.120
    00:14:07.889                : :00:14:07.889
    00:23:18.272                : :00:23:18.272
    00:29:38.026                : :00:29:38.026
    00:35:07.772                : :00:35:07.772
    00:44:08.437                : :00:44:08.437
    00:50:43.499                : :00:50:43.499
    00:56:18.625                : :00:56:18.625
    01:03:02.821                : :01:03:02.821
    01:11:17.398                : :01:11:17.398
    01:17:49.165                : :01:17:49.164
    01:27:03.051                : :01:27:03.051
    01:33:22.430                : :01:33:22.430
    01:40:51.796                : :01:40:51.796
    01:46:25.087                : :01:46:25.087
    01:52:49.888                : :01:52:49.888

  • Peso: 4.92 GiB

Sinopsis

Descargar Capitana Marvel (2019) Full 1080p Latino, Mega, Google Drive. La historia sigue a Carol Danvers mientras se convierte en uno de los héroes más poderosos del universo, cuando la Tierra se encuentra atrapada en medio de una guerra galáctica entre dos razas alienígenas. Situada en los años 90, ‘Capitana Marvel’ es una historia nueva de un período de tiempo nunca antes visto en la historia del Universo Cinematográfico de Marvel.

Ficha técnica

Video trailer de la película

Enlaces de descarga

Rip de Bluray

Descargar Capitana Marvel (2019) Full 1080p Latino




Aportes de DPeliculasHDmega la pass es:dpeliculashdmega.org Aportes de CinemaniaHD la pass es:cinemaniahdd.com

Películas relacionadas

  • Tren Bala (2022) WEB-DL 4K UHD HDR Latino

    Tren Bala (2022) WEB-DL 4K UHD HDR Latino

    2022
    Tren Bala (2022) WEB-DL 4K UHD HDR Latino

    2h 7m 2022

    Descargar Tren Bala (2022) WEB-DL 4K UHD HDR Latino. El desafortunado asesino "Catarina" está decidido...

    Director: Paul Barry

    Género: 4K HDR

    Actores: Zooey Miyoshi

  • Tren Bala (2022) AMZN WEB-DL 1080p Latino

    Tren Bala (2022) AMZN WEB-DL 1080p Latino

    2022
    Tren Bala (2022) AMZN WEB-DL 1080p Latino

    2h 7m 2022

    Descargar Tren Bala (2022) AMZN WEB-DL 1080p Latino. Cinco asesinos a sueldo se encuentran a bordo de...

    Director: Paul Barry

    Género: Acción

    Actores: Zooey Miyoshi

  • Athena (2022) NF WEB-DL 1080p Latino

    Athena (2022) NF WEB-DL 1080p Latino

    2022
    Athena (2022) NF WEB-DL 1080p Latino

    1h 37m 2022

    Descargar Athena (2022) NF WEB-DL 1080p Latino. Horas después de la trágica muerte de su hermano menor...

    Director: Romain Gavras

    Género: Acción

    Actores: Tarek Haddaji

  • Lou (2022) NF WEB-DL 1080p Latino

    Lou (2022) NF WEB-DL 1080p Latino

    2022
    Lou (2022) NF WEB-DL 1080p Latino

    1h 47m 2022

    Descargar Lou (2022) NF WEB-DL 1080p Latino. Una mujer misteriosa y solitaria lucha contra las inclemencias...

    Director: Anna Foerster

    Género: Acción

    Actores: Toby Levins

descargar Capitana Marvel (2019) Full 1080p Latino Full 1080p 1080p gratis, Capitana Marvel (2019) Full 1080p Latino Full 1080p mega 1 link, Capitana Marvel (2019) Full 1080p Latino Full 1080p pelicula completa, descargar Capitana Marvel (2019) Full 1080p Latino Full 1080p gratis en mega.

Capitana Marvel (2019) Full 1080p Latino pelicula full hd, Capitana Marvel (2019) Full 1080p Latino mega latino, Capitana Marvel (2019) Full 1080p Latino 4k latino, Capitana Marvel (2019) Full 1080p Latino pelicula completa, Capitana Marvel (2019) Full 1080p Latino descargar gratis, descargar Capitana Marvel (2019) Full 1080p Latino pelicula latino, Capitana Marvel (2019) Full 1080p Latino 1 link mega, Capitana Marvel (2019) Full 1080p Latino 1 link google drive, Capitana Marvel (2019) Full 1080p Latino hd 1080p latino.
Comentarios 1
  • Octavio Cesar posadas Martinez - 01 junio, 2019

    Gracias cinemaniahdd por capitana marvel full hd y googledrive, saludos