×

¿Problemas para descargar con Mozilla, EDGE? Deshabilita la opción "Abrir vinculos en una pestaña nueva" tal como lo muestra ésta imagen.

Capitán Laserhawk: Un Remix De Blood Dragon (2023) Temporada 1 NF WEB-DL 1080p Latino

286 vistas

Información de Capitán Laserhawk: Un Remix De Blood Dragon (2023) Temporada 1 NF WEB-DL 1080p Latino

Datos de la película

  • Calidad: WEBDL
  • Audio: Español Latino E-AC3 5.1 Netflix - Ingles E-AC3 5.1 Netflix
  • Subtitulos: Español Latino SRT- FORZADOS SRT
  • Resolución: 1920x1080p
  • Formato: MKV
  • Codec: H.264
  • Encoder: Melkor
  • Mediainfo: Clic para Mostrar Datos Ver
  • Captain Laserhawk S01E01 (2023) NF WebDL 1080p Latino.mkv
    Format                      : Matroska
    Format version              : Version 4
    File size                   : 979 MiB
    Duration                    : 22 min 48 s
    Overall bit rate mode       : Variable
    Overall bit rate            : 6 001 kb/s
    Movie name                  : Captain Laserhawk A Blood Dragon Remix S01E01 CinemaniaHDD.Net
    Encoded date                : UTC 2023-10-22 08:28:54
    Writing application         : mkvmerge v59.0.0 ('Shining Star') 64-bit
    Writing library             : libebml v1.4.2 + libmatroska v1.6.4
    Attachments                 : CINEMANIAHD.png
    Site                        : CinemaniaHDD.Net
    Uploader                    : Melkor

    Video
    ID                          : 1
    Format                      : AVC
    Format/Info                 : Advanced Video Codec
    Format profile              : Main@L4
    Format settings             : CABAC / 3 Ref Frames
    Format settings, CABAC      : Yes
    Format settings, Reference  : 3 frames
    Codec ID                    : V_MPEG4/ISO/AVC
    Duration                    : 22 min 47 s
    Bit rate mode               : Variable
    Bit rate                    : 4 520 kb/s
    Nominal bit rate            : 5 000 kb/s
    Maximum bit rate            : 7 500 kb/s
    Width                       : 1 920 pixels
    Height                      : 1 080 pixels
    Display aspect ratio        : 16:9
    Frame rate mode             : Constant
    Frame rate                  : 24.000 FPS
    Color space                 : YUV
    Chroma subsampling          : 4:2:0
    Bit depth                   : 8 bits
    Scan type                   : Progressive
    Bits/(Pixel*Frame)          : 0.091
    Stream size                 : 737 MiB (75%)
    Title                       : WEB HD1080p [CinemaniaHDD]
    Writing library             : x264 core 148 r2727 7d026e8
    Encoding settings           : cabac=1 / ref=3 / deblock=1:0:0 / analyse=0x1:0x111 / me=umh / subme=10 / psy=1 / psy_rd=1.00:0.00 / mixed_ref=1 / me_range=24 / chroma_me=1 / trellis=2 / 8x8dct=0 / cqm=0 / deadzone=21,11 / fast_pskip=1 / chroma_qp_offset=-2 / threads=6 / lookahead_threads=1 / sliced_threads=0 / nr=0 / decimate=1 / interlaced=0 / bluray_compat=0 / stitchable=1 / constrained_intra=0 / bframes=2 / b_pyramid=0 / b_adapt=2 / b_bias=0 / direct=3 / weightb=1 / open_gop=0 / weightp=2 / keyint=240 / keyint_min=121 / scenecut=0 / intra_refresh=0 / rc_lookahead=48 / rc=2pass / mbtree=1 / bitrate=5000 / ratetol=1.0 / qcomp=0.50 / qpmin=6 / qpmax=51 / qpstep=4 / cplxblur=20.0 / qblur=0.5 / vbv_maxrate=7500 / vbv_bufsize=10000 / nal_hrd=vbr / filler=0 / ip_ratio=1.40 / aq=1:1.00
    Default                     : Yes
    Forced                      : No

    Audio #1
    ID                          : 2
    Format                      : E-AC-3 JOC
    Format/Info                 : Enhanced AC-3 with Joint Object Coding
    Commercial name             : Dolby Digital Plus with Dolby Atmos
    Codec ID                    : A_EAC3
    Duration                    : 22 min 48 s
    Bit rate mode               : Constant
    Bit rate                    : 768 kb/s
    Channel(s)                  : 6 channels
    Channel layout              : L R C LFE Ls Rs
    Sampling rate               : 48.0 kHz
    Frame rate                  : 31.250 FPS (1536 SPF)
    Compression mode            : Lossy
    Stream size                 : 125 MiB (13%)
    Title                       : Español Latino [CinemaniaHDD]
    Language                    : Spanish
    Service kind                : Complete Main
    Default                     : Yes
    Forced                      : No
    Complexity index            : 16
    Number of dynamic objects   : 15
    Bed channel count           : 1 channel
    Bed channel configuration   : LFE

    Audio #2
    ID                          : 3
    Format                      : E-AC-3 JOC
    Format/Info                 : Enhanced AC-3 with Joint Object Coding
    Commercial name             : Dolby Digital Plus with Dolby Atmos
    Codec ID                    : A_EAC3
    Duration                    : 21 min 5 s
    Bit rate mode               : Constant
    Bit rate                    : 768 kb/s
    Channel(s)                  : 6 channels
    Channel layout              : L R C LFE Ls Rs
    Sampling rate               : 48.0 kHz
    Frame rate                  : 31.250 FPS (1536 SPF)
    Compression mode            : Lossy
    Stream size                 : 116 MiB (12%)
    Title                       : Ingles [CinemaniaHDD]
    Language                    : English
    Service kind                : Complete Main
    Default                     : No
    Forced                      : No
    Complexity index            : 16
    Number of dynamic objects   : 15
    Bed channel count           : 1 channel
    Bed channel configuration   : LFE

    Text #1
    ID                          : 4
    Format                      : UTF-8
    Codec ID                    : S_TEXT/UTF8
    Codec ID/Info               : UTF-8 Plain Text
    Duration                    : 17 min 15 s
    Bit rate                    : 1 b/s
    Count of elements           : 8
    Stream size                 : 199 Bytes (0%)
    Title                       : Forzados-SRT [CinemaniaHDD]
    Language                    : Spanish
    Default                     : Yes
    Forced                      : Yes

    Text #2
    ID                          : 5
    Format                      : UTF-8
    Codec ID                    : S_TEXT/UTF8
    Codec ID/Info               : UTF-8 Plain Text
    Duration                    : 20 min 34 s
    Bit rate                    : 62 b/s
    Count of elements           : 273
    Stream size                 : 9.41 KiB (0%)
    Title                       : Español-SRT [CinemaniaHDD]
    Language                    : Spanish
    Default                     : No
    Forced                      : No

    Text #3
    ID                          : 6
    Format                      : UTF-8
    Codec ID                    : S_TEXT/UTF8
    Codec ID/Info               : UTF-8 Plain Text
    Duration                    : 20 min 41 s
    Bit rate                    : 85 b/s
    Count of elements           : 405
    Stream size                 : 13.0 KiB (0%)
    Title                       : Ingles-SRT [CinemaniaHDD]
    Language                    : English
    Default                     : No
    Forced                      : No

  • Peso: 1 GiB Aprox C/U -- 6.03 GiB -- 6 Chapters

Sinopsis

Descargar Capitán Laserhawk: Un Remix De Blood Dragon (2023) Temporada 1 NF WEB-DL 1080p Latino. En una sociedad distópica en la que nada es lo que parece, un cibersoldado —tildado de enemigo del Estado— se esfuerza por encontrar una causa por la que valga la pena luchar.

Ficha técnica

Video trailer de la película

Enlaces de descarga

Rip de Bluray

Descargar Capitán Laserhawk: Un Remix De Blood Dragon (2023) Temporada 1 NF WEB-DL 1080p Latino




Aportes de DPeliculasHDmega la pass es:dpeliculashdmega.org Aportes de CinemaniaHD la pass es:cinemaniahdd.com Aportes recientes:cinemaniahdd.net

Películas relacionadas

  • El Oso (2022) Temporada 2 WEB-DL 1080p Latino

    El Oso (2022) Temporada 2 WEB-DL 1080p Latino

    2022
    El Oso (2022) Temporada 2 WEB-DL 1080p Latino

    0h 0m 2022

    Descargar El Oso (2022) Temporada 2 WEB-DL 1080p Latino. Carmy, un joven chef de alta cocina, vuelve...

    Director: Christopher Storer

    Género: Comedia

    Actores: Matty Matheson

  • El Oso (2022) Temporada 1 WEB-DL 1080p Latino

    El Oso (2022) Temporada 1 WEB-DL 1080p Latino

    2022
    El Oso (2022) Temporada 1 WEB-DL 1080p Latino

    0h 0m 2022

    Descargar El Oso (2022) Temporada 1 WEB-DL 1080p Latino. Carmy, un joven chef de alta cocina, vuelve...

    Director: Christopher Storer

    Género: Comedia

    Actores: Matty Matheson

  • The Acolyte (2024) Temporada 1 WEB-DL 1080p Latino

    The Acolyte (2024) Temporada 1 WEB-DL 1080p Latino

    2024
    The Acolyte (2024) Temporada 1 WEB-DL 1080p Latino

    0h 0m 2024

    Descargar The Acolyte (2024) Temporada 1 WEB-DL 1080p Latino. Una investigación sobre una impactante...

    Director: Leslye Headland

    Género: Misterio

    Actores: 이정재

descargar Capitán Laserhawk: Un Remix De Blood Dragon (2023) Temporada 1 NF WEB-DL 1080p Latino WEBDL 1080p gratis, Capitán Laserhawk: Un Remix De Blood Dragon (2023) Temporada 1 NF WEB-DL 1080p Latino WEBDL mega 1 link, Capitán Laserhawk: Un Remix De Blood Dragon (2023) Temporada 1 NF WEB-DL 1080p Latino WEBDL serie completa, descargar Capitán Laserhawk: Un Remix De Blood Dragon (2023) Temporada 1 NF WEB-DL 1080p Latino WEBDL gratis en mega.

Capitán Laserhawk: Un Remix De Blood Dragon (2023) Temporada 1 NF WEB-DL 1080p Latino pelicula full hd, Capitán Laserhawk: Un Remix De Blood Dragon (2023) Temporada 1 NF WEB-DL 1080p Latino mega latino, Capitán Laserhawk: Un Remix De Blood Dragon (2023) Temporada 1 NF WEB-DL 1080p Latino 4k latino, Capitán Laserhawk: Un Remix De Blood Dragon (2023) Temporada 1 NF WEB-DL 1080p Latino pelicula completa, Capitán Laserhawk: Un Remix De Blood Dragon (2023) Temporada 1 NF WEB-DL 1080p Latino descargar gratis, descargar Capitán Laserhawk: Un Remix De Blood Dragon (2023) Temporada 1 NF WEB-DL 1080p Latino pelicula latino, Capitán Laserhawk: Un Remix De Blood Dragon (2023) Temporada 1 NF WEB-DL 1080p Latino 1 link mega, Capitán Laserhawk: Un Remix De Blood Dragon (2023) Temporada 1 NF WEB-DL 1080p Latino 1 link google drive, Capitán Laserhawk: Un Remix De Blood Dragon (2023) Temporada 1 NF WEB-DL 1080p Latino hd 1080p latino.
Comentarios 0