Capitán de mar y guerra La costa más lejana del mundo (2003) Full 1080p Latino

2.183 vistas
1 estrella2 estrellas3 estrellas4 estrellas5 estrellas (4 votos, promedio: 4,00 de 5)
Cargando…

Información de Capitán de mar y guerra La costa más lejana del mundo (2003) Full 1080p Latino

Datos de la película

  • Calidad: Full 1080p
  • Audio: Español Latino AC3 5.1 BLURAY - Ingles DTS 5.1 BLURAY
  • Subtitulos: Español Latino PGS - Ingles PGS
  • Resolución: 1920x1080p
  • Formato: MKV
  • Codec: H.264
  • Encoder: Dracarys
  • Mediainfo: Clic para Mostrar Datos Ver
  • Format                                   : Matroska
    Format version                           : Version 2
    File size                                : 7.13 GiB
    Duration                                 : 2 h 18 min
    Overall bit rate                         : 7 377 kb/s
    Movie name                               : CinemaniaHDD.net
    Encoded date                             : UTC 2018-07-04 17:40:27 / UTC 2018-06-30T16:16:33Z
    Writing application                      : mkvmerge v5.7.0 ('The Whirlwind') built on Jul  8 2012 20:08:51
    Writing library                          : libebml v1.2.3 + libmatroska v1.3.0 / Lavf57.7.2

    Video
    ID                                       : 1
    Format                                   : AVC
    Format/Info                              : Advanced Video Codec
    Format profile                           : High@L4.1
    Format settings                          : CABAC / 4 Ref Frames
    Format settings, CABAC                   : Yes
    Format settings, RefFrames               : 4 frames
    Muxing mode                              : Header stripping
    Codec ID                                 : V_MPEG4/ISO/AVC
    Duration                                 : 2 h 18 min
    Bit rate                                 : 5 273 kb/s
    Width                                    : 1 920 pixels
    Height                                   : 1 080 pixels
    Display aspect ratio                     : 16:9
    Frame rate mode                          : Constant
    Frame rate                               : 23.976 (24000/1001) FPS
    Color space                              : YUV
    Chroma subsampling                       : 4:2:0
    Bit depth                                : 8 bits
    Scan type                                : Progressive
    Bits/(Pixel*Frame)                       : 0.106
    Stream size                              : 5.10 GiB (71%)
    Title                                    : Capitán de mar y guerra La costa más lejana del mundo (2003) Full 1080p Latino
    Writing library                          : x264 core 155 r2893 b00bcaf
    Encoding settings                        : cabac=1 / ref=4 / deblock=1:0:0 / analyse=0x3:0x133 / me=esa / subme=10 / psy=1 / psy_rd=1.00:0.00 / mixed_ref=1 / me_range=24 / chroma_me=1 / trellis=2 / 8x8dct=1 / cqm=0 / deadzone=21,11 / fast_pskip=1 / chroma_qp_offset=-2 / threads=24 / lookahead_threads=4 / sliced_threads=0 / nr=0 / decimate=1 / interlaced=0 / bluray_compat=0 / constrained_intra=0 / bframes=8 / b_pyramid=2 / b_adapt=2 / b_bias=0 / direct=3 / weightb=1 / open_gop=0 / weightp=2 / keyint=240 / keyint_min=24 / scenecut=40 / intra_refresh=0 / rc_lookahead=60 / rc=crf / mbtree=1 / crf=20.0 / qcomp=0.60 / qpmin=0 / qpmax=69 / qpstep=4 / vbv_maxrate=62500 / vbv_bufsize=78125 / crf_max=0.0 / nal_hrd=none / filler=0 / ip_ratio=1.40 / aq=1:1.00
    Language                                 : English
    Default                                  : Yes
    Forced                                   : No
    Color range                              : Limited
    Color primaries                          : BT.709
    Transfer characteristics                 : BT.709
    Matrix coefficients                      : BT.709

    Audio #1
    ID                                       : 2
    Format                                   : AC-3
    Format/Info                              : Audio Coding 3
    Format settings, Endianness              : Big
    Muxing mode                              : Header stripping
    Codec ID                                 : A_AC3
    Duration                                 : 2 h 18 min
    Bit rate mode                            : Constant
    Bit rate                                 : 448 kb/s
    Channel(s)                               : 6 channels
    Channel positions                        : Front: L C R, Side: L R, LFE
    Sampling rate                            : 48.0 kHz
    Frame rate                               : 31.250 FPS (1536 SPF)
    Bit depth                                : 16 bits
    Compression mode                         : Lossy
    Delay relative to video                  : 9 ms
    Stream size                              : 443 MiB (6%)
    Language                                 : Spanish
    Service kind                             : Complete Main
    Default                                  : Yes
    Forced                                   : No

    Audio #2
    ID                                       : 3
    Format                                   : DTS
    Format/Info                              : Digital Theater Systems
    Mode                                     : 16
    Format settings, Endianness              : Big
    Muxing mode                              : Header stripping
    Codec ID                                 : A_DTS
    Duration                                 : 2 h 18 min
    Bit rate mode                            : Constant
    Bit rate                                 : 1 509 kb/s
    Channel(s)                               : 6 channels
    Channel positions                        : Front: L C R, Side: L R, LFE
    Sampling rate                            : 48.0 kHz
    Frame rate                               : 93.750 FPS (512 SPF)
    Bit depth                                : 24 bits
    Compression mode                         : Lossy
    Delay relative to video                  : 2 ms
    Stream size                              : 1.46 GiB (20%)
    Language                                 : English
    Default                                  : No
    Forced                                   : No

    Text #1
    ID                                       : 4
    Format                                   : PGS
    Muxing mode                              : zlib
    Codec ID                                 : S_HDMV/PGS
    Codec ID/Info                            : Picture based subtitle format used on BDs/HD-DVDs
    Language                                 : English
    Default                                  : No
    Forced                                   : No

    Text #2
    ID                                       : 5
    Format                                   : PGS
    Muxing mode                              : zlib
    Codec ID                                 : S_HDMV/PGS
    Codec ID/Info                            : Picture based subtitle format used on BDs/HD-DVDs
    Language                                 : Spanish
    Default                                  : No
    Forced                                   : No

    Text #3
    ID                                       : 6
    Format                                   : PGS
    Muxing mode                              : zlib
    Codec ID                                 : S_HDMV/PGS
    Codec ID/Info                            : Picture based subtitle format used on BDs/HD-DVDs
    Title                                    : Forzados
    Language                                 : Spanish
    Default                                  : Yes
    Forced                                   : Yes

    Menu
    00:00:00.000                             : :Chapter 1
    00:02:01.121                             : :Chapter 2
    00:03:57.070                             : :Chapter 3
    00:08:18.248                             : :Chapter 4
    00:12:39.842                             : :Chapter 5
    00:15:16.916                             : :Chapter 6
    00:18:13.050                             : :Chapter 7
    00:20:22.722                             : :Chapter 8
    00:26:23.624                             : :Chapter 9
    00:28:04.683                             : :Chapter 10
    00:31:34.142                             : :Chapter 11
    00:36:56.339                             : :Chapter 12
    00:39:51.723                             : :Chapter 13
    00:45:50.998                             : :Chapter 14
    00:49:33.679                             : :Chapter 15
    00:54:39.985                             : :Chapter 16
    00:58:15.575                             : :Chapter 17
    01:02:38.755                             : :Chapter 18
    01:04:38.083                             : :Chapter 19
    01:06:22.312                             : :Chapter 20
    01:09:16.527                             : :Chapter 21
    01:11:55.061                             : :Chapter 22
    01:13:56.390                             : :Chapter 23
    01:19:10.871                             : :Chapter 24
    01:26:15.212                             : :Chapter 25
    01:30:08.236                             : :Chapter 26
    01:33:30.021                             : :Chapter 27
    01:38:02.251                             : :Chapter 28
    01:40:21.891                             : :Chapter 29
    01:44:33.768                             : :Chapter 30
    01:48:14.071                             : :Chapter 31
    01:57:17.113                             : :Chapter 32
    01:59:14.147                             : :Chapter 33
    02:03:39.996                             : :Chapter 34
    02:05:27.562                             : :Chapter 35
    02:08:42.131                             : :Chapter 36

  • Peso: 7.13 GiB

Sinopsis

1805. Napoleón domina Europa. Tan sólo Inglaterra se le resiste. Son tiempos de guerras napoleónicas, y ahora los mares y océanos se han convertido en un crucial y estratégico campo de batalla. En el océano Atlántico el navío de guerra inglés Surprise, capitaneado por “Lucky” Jack Aubrey (Crowe), es atacado de repente por un buque de guerra enemigo muy superior a él. Aubrey toma entonces una decisión memorable: a pesar de los graves daños sufridos por el Surprise y su fiel tripulación, entre los que se encuentra el cirujano Stephen Maturin (Bettany), decide navegar, asumiendo serios riesgos, a través de dos mares para interceptar y capturar a su enemigo. Es una misión que puede determinar el destino de una nación o destruir al capitán y a su tripulación, enfrentándose a un corsario mucho mejor armado e implacable, en una persecución por los mares que le lleva al otro lado del mundo.

Ficha técnica

Video trailer de la película

Enlaces de descarga

Rip de Bluray

Descargar Capitán de mar y guerra La costa más lejana del mundo (2003) Full 1080p Latino




Aportes de DPeliculasHDmega la pass es:dpeliculashdmega.org Aportes de CinemaniaHD la pass es:cinemaniahdd.com

Películas relacionadas

  • El Justiciero 2 (2018) Full 1080p Latino

    2018
    El Justiciero 2 (2018) Full 1080p Latino

    0.0 2h 0m 2018

    Descargar El Justiciero 2 (2018) Full 1080p Latino, Mega, Google Drive. Robert McCall (Denzel Washington)...

    Director: Donald Sparks

    Género: Acción

    Actores: Wesley Pereira

  • Arrow (2018) Temporada 07 AMZN Web-DL 1080p Latino

    2012
    Arrow (2018) Temporada 07 AMZN Web-DL 1080p Latino

    2.7 0h 42m 2012

    Descargar Arrow Temporada 07 AMZN Web-DL 1080p Latino; Mega, Google Drive. No ha habido escasez de llamadas...

    Director: Marc Guggenheim

    Género: Action & Adventure

    Actores: Stephen Amell

Comentarios 0