×

¿Problemas para descargar con Mozilla, EDGE? Deshabilita la opción "Abrir vinculos en una pestaña nueva" tal como lo muestra ésta imagen.

Capitán América y el Soldado del Invierno (2014) REMUX 1080p Latino

1.660 vistas

Información de Capitán América y el Soldado del Invierno (2014) REMUX 1080p Latino

capitan america el soldado de invierno 52683 poster

Datos de la película

  • Calidad: Full 1080p
  • Audio: Se especifica abajo de la Sinopsis
  • Subtitulos: Español Latino SRT- FORZADOS SRT
  • Resolución: 1920x1080p
  • Formato: MKV
  • Codec: H.264
  • Encoder: Dracarys
  • Mediainfo: Clic para Mostrar Datos Ver
  • Format                      : Matroska
    Format version              : Version 4
    File size                   : 32.6 GiB
    Duration                    : 2 h 15 min
    Overall bit rate mode       : Variable
    Overall bit rate            : 34.4 Mb/s
    Movie name                  : CinemaniaHDD.net
    Encoded date                : UTC 2019-04-24 04:13:13
    Writing application         : mkvmerge v30.1.0 ('Forever And More') 64-bit
    Writing library             : libebml v1.3.6 + libmatroska v1.4.9

    Video
    ID                          : 1
    Format                      : AVC
    Format/Info                 : Advanced Video Codec
    Format profile              : High@L4.1
    Format settings             : CABAC / 4 Ref Frames
    Format settings, CABAC      : Yes
    Format settings, ReFrames   : 4 frames
    Codec ID                    : V_MPEG4/ISO/AVC
    Duration                    : 2 h 15 min
    Bit rate mode               : Variable
    Bit rate                    : 28.6 Mb/s
    Maximum bit rate            : 32.7 Mb/s
    Width                       : 1 920 pixels
    Height                      : 1 080 pixels
    Display aspect ratio        : 16:9
    Frame rate mode             : Constant
    Frame rate                  : 23.976 (24000/1001) FPS
    Color space                 : YUV
    Chroma subsampling          : 4:2:0
    Bit depth                   : 8 bits
    Scan type                   : Progressive
    Bits/(Pixel*Frame)          : 0.575
    Stream size                 : 27.1 GiB (83%)
    Language                    : English
    Default                     : Yes
    Forced                      : No

    Audio #1
    ID                          : 2
    Format                      : DTS XLL
    Format/Info                 : Digital Theater Systems
    Commercial name             : DTS-HD Master Audio
    Codec ID                    : A_DTS
    Duration                    : 2 h 15 min
    Bit rate mode               : Variable
    Bit rate                    : 4 767 kb/s
    Channel(s)                  : 8 channels
    Channel layout              : C L R LFE Lb Rb Lss Rss
    Sampling rate               : 48.0 kHz
    Frame rate                  : 93.750 FPS (512 SPF)
    Bit depth                   : 24 bits
    Compression mode            : Lossless
    Stream size                 : 4.52 GiB (14%)
    Language                    : English
    Default                     : No
    Forced                      : No

    Audio #2
    ID                          : 3
    Format                      : E-AC-3
    Format/Info                 : Enhanced AC-3
    Commercial name             : Dolby Digital Plus
    Format profile              : Blu-ray Disc
    Codec ID                    : A_EAC3
    Duration                    : 2 h 15 min
    Bit rate mode               : Constant
    Bit rate                    : 1 024 kb/s
    Channel(s)                  : 8 channels
    Channel layout              : L R C LFE Ls Rs Lb Rb
    Sampling rate               : 48.0 kHz
    Frame rate                  : 31.250 FPS (1536 SPF)
    Compression mode            : Lossy
    Stream size                 : 995 MiB (3%)
    Language                    : Spanish
    Service kind                : Complete Main
    Default                     : Yes
    Forced                      : Yes

    Text #1
    ID                          : 4
    Format                      : PGS
    Muxing mode                 : zlib
    Codec ID                    : S_HDMV/PGS
    Codec ID/Info               : Picture based subtitle format used on BDs/HD-DVDs
    Duration                    : 2 h 14 min
    Bit rate                    : 31.5 kb/s
    Count of elements           : 3096
    Stream size                 : 30.4 MiB (0%)
    Language                    : Spanish
    Default                     : No
    Forced                      : No

    Text #2
    ID                          : 5
    Format                      : PGS
    Muxing mode                 : zlib
    Codec ID                    : S_HDMV/PGS
    Codec ID/Info               : Picture based subtitle format used on BDs/HD-DVDs
    Duration                    : 2 h 12 min
    Bit rate                    : 623 b/s
    Count of elements           : 76
    Stream size                 : 604 KiB (0%)
    Title                       : Forzados-PGS
    Language                    : Spanish
    Default                     : No
    Forced                      : No

    Text #3
    ID                          : 6
    Format                      : UTF-8
    Codec ID                    : S_TEXT/UTF8
    Codec ID/Info               : UTF-8 Plain Text
    Duration                    : 2 h 14 min
    Bit rate                    : 49 b/s
    Count of elements           : 1548
    Stream size                 : 49.0 KiB (0%)
    Language                    : Spanish
    Default                     : No
    Forced                      : No

    Text #4
    ID                          : 7
    Format                      : UTF-8
    Codec ID                    : S_TEXT/UTF8
    Codec ID/Info               : UTF-8 Plain Text
    Duration                    : 2 h 12 min
    Bit rate                    : 1 b/s
    Count of elements           : 38
    Stream size                 : 1.10 KiB (0%)
    Title                       : Forzados-SRT
    Language                    : Spanish
    Default                     : Yes
    Forced                      : Yes
     

  • Peso: 32.6 GiB

Sinopsis

Mientras que Capitán America: El primer vengador nos sumergía en los primeros años del universo Marvel a través de la traslación del legendario cómic a la gran pantalla, ahora el héroe regresa con Capitán América: El soldado del invierno. Esta historia se desarrollo en la actualidad y tiene como protagonistas a Chris Evans, Samuel L. Jackson y Scarlett Johansson, entre otros. La trama de la historia sigue girando alrededor de Steve Rogers, que mantiene su alianza con Nick Furia y con la agencia secreta SHIELD, e intenta, además involucrarse en el mundo moderno.

 

Latino: E-AC3 7.1  –  Ingles: DTS-HD MA 7.1

Ficha técnica

Video trailer de la película

Enlaces de descarga

Rip de Bluray

Descargar Capitán América y el Soldado del Invierno (2014) REMUX 1080p Latino




Aportes de DPeliculasHDmega la pass es:dpeliculashdmega.org Aportes de CinemaniaHD la pass es:cinemaniahdd.com
Guardado en : Acción , Aventura , Ciencia ficción , Remux

Películas relacionadas

descargar Capitán América y el Soldado del Invierno (2014) REMUX 1080p Latino Full 1080p 1080p gratis, Capitán América y el Soldado del Invierno (2014) REMUX 1080p Latino Full 1080p mega 1 link, Capitán América y el Soldado del Invierno (2014) REMUX 1080p Latino Full 1080p pelicula completa, descargar Capitán América y el Soldado del Invierno (2014) REMUX 1080p Latino Full 1080p gratis en mega.

Capitán América y el Soldado del Invierno (2014) REMUX 1080p Latino pelicula full hd, Capitán América y el Soldado del Invierno (2014) REMUX 1080p Latino mega latino, Capitán América y el Soldado del Invierno (2014) REMUX 1080p Latino 4k latino, Capitán América y el Soldado del Invierno (2014) REMUX 1080p Latino pelicula completa, Capitán América y el Soldado del Invierno (2014) REMUX 1080p Latino descargar gratis, descargar Capitán América y el Soldado del Invierno (2014) REMUX 1080p Latino pelicula latino, Capitán América y el Soldado del Invierno (2014) REMUX 1080p Latino 1 link mega, Capitán América y el Soldado del Invierno (2014) REMUX 1080p Latino 1 link google drive, Capitán América y el Soldado del Invierno (2014) REMUX 1080p Latino hd 1080p latino.
Comentarios 0