×

¿Problemas para descargar con Mozilla, EDGE? Deshabilita la opción "Abrir vinculos en una pestaña nueva" tal como lo muestra ésta imagen.

Capitán América Y El soldado de invierno (2014) 4K UHD HDR Latino

2.938 vistas

Información de Capitán América Y El soldado de invierno (2014) 4K UHD HDR Latino

capitan america el soldado de invierno 52515 poster

Datos de la película

  • Calidad: 4K HDR
  • Audio: Se especifica abajo de la Sinopsis
  • Subtitulos: Español Latino PGS - Ingles PGS
  • Resolución: 3840x1600p
  • Formato: MKV
  • Codec: HEVC
  • Encoder: CinefiloCool
  • Mediainfo: Clic para Mostrar Datos Ver
  • Capitan America Soldado Del Invierno (2014) UHD HDR Latino.mkv
    Format                      : Matroska
    Format version              : Version 4
    File size                   : 8.00 GiB
    Duration                    : 2 h 15 min
    Overall bit rate            : 8 423 kb/s
    Movie name                  : CinemaniaHDD.Net
    Encoded date                : UTC 2019-04-18 19:39:30
    Writing application         : mkvmerge v30.1.0 ('Forever And More') 64-bit
    Writing library             : libebml v1.3.6 + libmatroska v1.4.9

    Video
    ID                          : 1
    Format                      : HEVC
    Format/Info                 : High Efficiency Video Coding
    Commercial name             : HDR10
    Format profile              : Main 10@L5.1@High
    Codec ID                    : V_MPEGH/ISO/HEVC
    Duration                    : 2 h 15 min
    Bit rate                    : 6 096 kb/s
    Width                       : 3 840 pixels
    Height                      : 1 600 pixels
    Display aspect ratio        : 2.40:1
    Frame rate mode             : Constant
    Frame rate                  : 23.976 (24000/1001) FPS
    Color space                 : YUV
    Chroma subsampling          : 4:2:0 (Type 2)
    Bit depth                   : 10 bits
    Bits/(Pixel*Frame)          : 0.041
    Stream size                 : 5.79 GiB (72%)
    Title                       : 2160p HDR (Bluray)
    Writing library             : x265 3.0_Au+18-768ab38fd5fd:[Windows][MSVC 1920][64 bit] 10bit
    Encoding settings           : cpuid=1111039 / frame-threads=5 / numa-pools=36 / wpp / no-pmode / no-pme / no-psnr / no-ssim / log-level=2 / input-csp=1 / input-res=3840x1600 / interlace=0 / total-frames=195503 / level-idc=51 / high-tier=1 / uhd-bd=0 / ref=4 / no-allow-non-conformance / repeat-headers / annexb / aud / hrd / info / hash=0 / no-temporal-layers / no-open-gop / min-keyint=1 / keyint=24 / gop-lookahead=0 / bframes=4 / b-adapt=2 / b-pyramid / bframe-bias=0 / rc-lookahead=25 / lookahead-slices=4 / scenecut=40 / radl=0 / no-splice / no-intra-refresh / ctu=64 / min-cu-size=8 / rect / no-amp / max-tu-size=32 / tu-inter-depth=1 / tu-intra-depth=1 / limit-tu=0 / rdoq-level=2 / dynamic-rd=0.00 / no-ssim-rd / signhide / no-tskip / nr-intra=0 / nr-inter=0 / no-constrained-intra / no-strong-intra-smoothing / max-merge=3 / limit-refs=3 / limit-modes / me=3 / subme=3 / merange=57 / temporal-mvp / weightp / no-weightb / no-analyze-src-pics / deblock=-3:-3 / no-sao / no-sao-non-deblock / rd=4 / no-early-skip / rskip / no-fast-intra / no-tskip-fast / no-cu-lossless / no-b-intra / no-splitrd-skip / rdpenalty=0 / psy-rd=2.00 / psy-rdoq=1.00 / no-rd-refine / no-lossless / cbqpoffs=0 / crqpoffs=0 / rc=crf / crf=17.0 / qcomp=0.60 / qpstep=4 / stats-write=0 / stats-read=0 / vbv-maxrate=160000 / vbv-bufsize=160000 / vbv-init=0.9 / crf-max=0.0 / crf-min=0.0 / ipratio=1.40 / pbratio=1.30 / aq-mode=2 / aq-strength=1.00 / cutree / zone-count=0 / no-strict-cbr / qg-size=32 / no-rc-grain / qpmax=69 / qpmin=0 / no-const-vbv / sar=1 / overscan=0 / videoformat=5 / range=0 / colorprim=9 / transfer=16 / colormatrix=9 / chromaloc=1 / chromaloc-top=2 / chromaloc-bottom=2 / display-window=0 / master-display=G(13250,34500)B(7500,3000)R(34000,16000)WP(15635,16450)L(10000000,20) / max-cll=793,679 / min-luma=0 / max-luma=1023 / log2-max-poc-lsb=8 / vui-timing-info / vui-hrd-info / slices=1 / no-opt-qp-pps / no-opt-ref-list-length-pps / no-multi-pass-opt-rps / scenecut-bias=0.05 / no-opt-cu-delta-qp / no-aq-motion / hdr / hdr-opt / no-dhdr10-opt / no-idr-recovery-sei / analysis-reuse-level=5 / scale-factor=0 / refine-intra=0 / refine-inter=0 / refine-mv=0 / refine-ctu-distortion=0 / no-limit-sao / ctu-info=0 / no-lowpass-dct / refine-analysis-type=0 / copy-pic=1 / max-ausize-factor=1.0 / no-dynamic-refine / no-single-sei / no-hevc-aq / no-svt / qp-adaptation-range=1.00
    Default                     : Yes
    Forced                      : No
    Color range                 : Limited
    Color primaries             : BT.2020
    Transfer characteristics    : PQ
    Matrix coefficients         : BT.2020 non-constant
    Mastering display color pri : Display P3
    Mastering display luminance : min: 0.0020 cd/m2, max: 1000 cd/m2
    Maximum Content Light Level : 793 cd/m2
    Maximum Frame-Average Light : 679 cd/m2

    Audio #1
    ID                          : 2
    Format                      : E-AC-3
    Format/Info                 : Enhanced AC-3
    Commercial name             : Dolby Digital Plus
    Format profile              : Blu-ray Disc
    Codec ID                    : A_EAC3
    Duration                    : 2 h 15 min
    Bit rate mode               : Constant
    Bit rate                    : 1 024 kb/s
    Channel(s)                  : 8 channels
    Channel layout              : L R C LFE Ls Rs Lb Rb
    Sampling rate               : 48.0 kHz
    Frame rate                  : 31.250 FPS (1536 SPF)
    Compression mode            : Lossy
    Stream size                 : 995 MiB (12%)
    Title                       : DDP_7.1_Bluray_Esp
    Language                    : Spanish
    Service kind                : Complete Main
    Default                     : Yes
    Forced                      : Yes

    Audio #2
    ID                          : 3
    Format                      : AC-3
    Format/Info                 : Audio Coding 3
    Commercial name             : Dolby Digital
    Codec ID                    : A_AC3
    Duration                    : 2 h 15 min
    Bit rate mode               : Constant
    Bit rate                    : 640 kb/s
    Channel(s)                  : 6 channels
    Channel layout              : L R C LFE Ls Rs
    Sampling rate               : 48.0 kHz
    Frame rate                  : 31.250 FPS (1536 SPF)
    Bit depth                   : 16 bits
    Compression mode            : Lossy
    Stream size                 : 622 MiB (8%)
    Title                       : AC3_5.1_Bluray_Esp
    Language                    : Spanish
    Service kind                : Complete Main
    Default                     : No
    Forced                      : No

    Audio #3
    ID                          : 4
    Format                      : AC-3
    Format/Info                 : Audio Coding 3
    Commercial name             : Dolby Digital
    Codec ID                    : A_AC3
    Duration                    : 2 h 15 min
    Bit rate mode               : Constant
    Bit rate                    : 640 kb/s
    Channel(s)                  : 6 channels
    Channel layout              : L R C LFE Ls Rs
    Sampling rate               : 48.0 kHz
    Frame rate                  : 31.250 FPS (1536 SPF)
    Bit depth                   : 16 bits
    Compression mode            : Lossy
    Stream size                 : 622 MiB (8%)
    Title                       : AC3_5.1_Bluray_Eng
    Language                    : English
    Service kind                : Complete Main
    Default                     : No
    Forced                      : No

    Text #1
    ID                          : 5
    Format                      : PGS
    Muxing mode                 : zlib
    Codec ID                    : S_HDMV/PGS
    Codec ID/Info               : Picture based subtitle format used on BDs/HD-DVDs
    Duration                    : 2 h 12 min
    Bit rate                    : 623 b/s
    Count of elements           : 76
    Stream size                 : 605 KiB (0%)
    Title                       : Sub_Forzados (PGS)
    Language                    : Spanish
    Default                     : Yes
    Forced                      : Yes

    Text #2
    ID                          : 6
    Format                      : PGS
    Muxing mode                 : zlib
    Codec ID                    : S_HDMV/PGS
    Codec ID/Info               : Picture based subtitle format used on BDs/HD-DVDs
    Duration                    : 2 h 14 min
    Bit rate                    : 31.5 kb/s
    Count of elements           : 3096
    Stream size                 : 30.4 MiB (0%)
    Title                       : Sub_Esp (PGS)
    Language                    : Spanish
    Default                     : No
    Forced                      : No

    Text #3
    ID                          : 7
    Format                      : PGS
    Muxing mode                 : zlib
    Codec ID                    : S_HDMV/PGS
    Codec ID/Info               : Picture based subtitle format used on BDs/HD-DVDs
    Duration                    : 2 h 8 min
    Bit rate                    : 34.4 kb/s
    Count of elements           : 3300
    Stream size                 : 31.7 MiB (0%)
    Title                       : Sub_Eng (PGS)
    Language                    : English
    Default                     : No
    Forced                      : No

    Menu
    00:00:00.000                : en:Chapter 01
    00:03:28.667                : en:Chapter 02
    00:13:31.728                : en:Chapter 03
    00:17:57.868                : en:Chapter 04
    00:22:25.302                : en:Chapter 05
    00:33:20.415                : en:Chapter 06
    00:41:27.276                : en:Chapter 07
    00:51:37.303                : en:Chapter 08
    00:58:23.959                : en:Chapter 09
    01:07:40.348                : en:Chapter 10
    01:16:22.203                : en:Chapter 11
    01:24:43.078                : en:Chapter 12
    01:32:17.699                : en:Chapter 13
    01:37:06.612                : en:Chapter 14
    01:49:13.088                : en:Chapter 15
    01:55:03.730                : en:Chapter 16
    02:01:11.055                : en:Chapter 17
    02:06:22.241                : en:Chapter 18

  • Peso: 8.00 GiB

Sinopsis

Descargar Capitán América Y El soldado de invierno (2014) 4K UHD HDR Latino. Mientras que Capitán America: El primer vengador nos sumergía en los primeros años del universo Marvel a través de la traslación del legendario cómic a la gran pantalla, ahora el héroe regresa con Capitán América: El soldado del invierno. Esta historia se desarrollo en la actualidad y tiene como protagonistas a Chris Evans, Samuel L. Jackson y Scarlett Johansson, entre otros. La trama de la historia sigue girando alrededor de Steve Rogers, que mantiene su alianza con Nick Furia y con la agencia secreta SHIELD, e intenta, además involucrarse en el mundo moderno.

Audio Español Latino E-AC3 7.1 Bluray – Ingles AC3 5.1 Bluray

Ficha técnica

Video trailer de la película

Enlaces de descarga

Rip de Bluray

Descargar Capitán América Y El soldado de invierno (2014) 4K UHD HDR Latino




Aportes de DPeliculasHDmega la pass es:dpeliculashdmega.org Aportes de CinemaniaHD la pass es:cinemaniahdd.com

Películas relacionadas

descargar Capitán América Y El soldado de invierno (2014) 4K UHD HDR Latino 4K HDR 1080p gratis, Capitán América Y El soldado de invierno (2014) 4K UHD HDR Latino 4K HDR mega 1 link, Capitán América Y El soldado de invierno (2014) 4K UHD HDR Latino 4K HDR pelicula completa, descargar Capitán América Y El soldado de invierno (2014) 4K UHD HDR Latino 4K HDR gratis en mega.

Capitán América Y El soldado de invierno (2014) 4K UHD HDR Latino pelicula full hd, Capitán América Y El soldado de invierno (2014) 4K UHD HDR Latino mega latino, Capitán América Y El soldado de invierno (2014) 4K UHD HDR Latino 4k latino, Capitán América Y El soldado de invierno (2014) 4K UHD HDR Latino pelicula completa, Capitán América Y El soldado de invierno (2014) 4K UHD HDR Latino descargar gratis, descargar Capitán América Y El soldado de invierno (2014) 4K UHD HDR Latino pelicula latino, Capitán América Y El soldado de invierno (2014) 4K UHD HDR Latino 1 link mega, Capitán América Y El soldado de invierno (2014) 4K UHD HDR Latino 1 link google drive, Capitán América Y El soldado de invierno (2014) 4K UHD HDR Latino hd 1080p latino.
Comentarios 2
  • Daneil - 21 abril, 2019

    Gracias por compartir, si mi TV es 4K pero no tiene HDR aun así vale la pena ver este formato o se verá mejor la 1080? Gracias.

    • cine filo - 23 abril, 2019

      Sin HDR se vera opaca como en las capturas debido a la profundidad de color