×

¿Problemas para descargar con Mozilla, EDGE? Deshabilita la opción "Abrir vinculos en una pestaña nueva" tal como lo muestra ésta imagen.

Cafarnaúm: La Ciudad Olvidada (2018) 1080p Latino

1.572 vistas

Información de Cafarnaúm: La Ciudad Olvidada (2018) 1080p Latino

Datos de la película

  • Calidad: 1080p
  • Audio: Se especifica abajo de la Sinopsis
  • Subtitulos: Español Latino SRT - Ingles SRT
  • Resolución: 1920x808p
  • Formato: MKV
  • Codec: H.264
  • Encoder: CinemaniaHD
  • Mediainfo: Clic para Mostrar Datos Ver
  • Cafarnaum (2018) 1080p Latino-CMHDD.mkv
    Format                      : Matroska
    Format version              : Version 4
    File size                   : 3.49 GiB
    Duration                    : 2 h 2 min
    Overall bit rate            : 4 060 kb/s
    Movie name                  : CinemaniaHDD.Net
    Encoded date                : UTC 2020-02-15 17:47:35
    Writing application         : mkvmerge v42.0.0 ('Overtime') 64-bit
    Writing library             : libebml v1.3.10 + libmatroska v1.5.2
    Attachments                 : CINEMANIAHD.png

    Video
    ID                          : 1
    Format                      : AVC
    Format/Info                 : Advanced Video Codec
    Format profile              : High@L4.1
    Format settings             : CABAC / 5 Ref Frames
    Format settings, CABAC      : Yes
    Format settings, ReFrames   : 5 frames
    Codec ID                    : V_MPEG4/ISO/AVC
    Duration                    : 2 h 2 min
    Bit rate                    : 3 500 kb/s
    Width                       : 1 920 pixels
    Height                      : 808 pixels
    Display aspect ratio        : 2.40:1
    Frame rate mode             : Constant
    Frame rate                  : 23.976 (24000/1001) FPS
    Color space                 : YUV
    Chroma subsampling          : 4:2:0
    Bit depth                   : 8 bits
    Scan type                   : Progressive
    Bits/(Pixel*Frame)          : 0.094
    Stream size                 : 2.88 GiB (83%)
    Title                       : HD1080p [Bluray]
    Writing library             : x264 core 157 r2935 545de2f
    Encoding settings           : cabac=1 / ref=5 / deblock=1:-1:-1 / analyse=0x3:0x113 / me=hex / subme=8 / psy=1 / psy_rd=1.00:0.15 / mixed_ref=1 / me_range=16 / chroma_me=1 / trellis=2 / 8x8dct=1 / cqm=0 / deadzone=21,11 / fast_pskip=1 / chroma_qp_offset=-3 / threads=25 / lookahead_threads=4 / sliced_threads=0 / nr=0 / decimate=1 / interlaced=0 / bluray_compat=0 / constrained_intra=0 / bframes=3 / b_pyramid=2 / b_adapt=1 / b_bias=0 / direct=3 / weightb=1 / open_gop=0 / weightp=2 / keyint=240 / keyint_min=24 / scenecut=40 / intra_refresh=0 / rc_lookahead=50 / rc=abr / mbtree=1 / bitrate=3500 / ratetol=1.0 / qcomp=0.60 / qpmin=0 / qpmax=69 / qpstep=4 / vbv_maxrate=62500 / vbv_bufsize=78125 / nal_hrd=none / filler=0 / ip_ratio=1.40 / aq=1:1.00
    Default                     : Yes
    Forced                      : Yes
    Color range                 : Limited
    Color primaries             : BT.709
    Transfer characteristics    : BT.709
    Matrix coefficients         : BT.709

    Audio #1
    ID                          : 2
    Format                      : AC-3
    Format/Info                 : Audio Coding 3
    Commercial name             : Dolby Digital
    Codec ID                    : A_AC3
    Duration                    : 2 h 2 min
    Bit rate mode               : Constant
    Bit rate                    : 256 kb/s
    Channel(s)                  : 2 channels
    Channel layout              : L R
    Sampling rate               : 48.0 kHz
    Frame rate                  : 31.250 FPS (1536 SPF)
    Bit depth                   : 16 bits
    Compression mode            : Lossy
    Delay relative to video     : -5 ms
    Stream size                 : 225 MiB (6%)
    Title                       : AC3_2.0_Capt_Esp
    Language                    : Spanish
    Service kind                : Complete Main
    Default                     : Yes
    Forced                      : Yes

    Audio #2
    ID                          : 3
    Format                      : AC-3
    Format/Info                 : Audio Coding 3
    Commercial name             : Dolby Digital
    Codec ID                    : A_AC3
    Duration                    : 2 h 2 min
    Bit rate mode               : Constant
    Bit rate                    : 448 kb/s
    Channel(s)                  : 6 channels
    Channel layout              : L R C LFE Ls Rs
    Sampling rate               : 48.0 kHz
    Frame rate                  : 31.250 FPS (1536 SPF)
    Bit depth                   : 16 bits
    Compression mode            : Lossy
    Delay relative to video     : -5 ms
    Stream size                 : 394 MiB (11%)
    Title                       : AC3_5.1_Bluray_Ara
    Language                    : Arabic
    Service kind                : Complete Main
    Default                     : No
    Forced                      : No

    Text #1
    ID                          : 4
    Format                      : UTF-8
    Codec ID                    : S_TEXT/UTF8
    Codec ID/Info               : UTF-8 Plain Text
    Duration                    : 1 h 55 min
    Bit rate                    : 38 b/s
    Count of elements           : 1170
    Stream size                 : 33.1 KiB (0%)
    Title                       : Sub_Esp
    Language                    : Spanish
    Default                     : No
    Forced                      : No

    Text #2
    ID                          : 5
    Format                      : UTF-8
    Codec ID                    : S_TEXT/UTF8
    Codec ID/Info               : UTF-8 Plain Text
    Duration                    : 1 h 55 min
    Bit rate                    : 37 b/s
    Count of elements           : 1118
    Stream size                 : 32.1 KiB (0%)
    Title                       : Sub_Eng
    Language                    : English
    Default                     : No
    Forced                      : No

    Menu
    00:00:00.000                : :00:00:00.000
    00:10:00.642                : :00:10:00.600
    00:20:01.200                : :00:20:01.200
    00:30:01.800                : :00:30:01.800
    00:40:02.525                : :00:40:02.400
    00:50:03.000                : :00:50:03.000
    01:00:03.642                : :01:00:03.600
    01:10:04.283                : :01:10:04.200
    01:20:04.883                : :01:20:04.800
    01:30:05.483                : :01:30:05.400
    01:40:06.000                : :01:40:06.000
    01:50:06.642                : :01:50:06.600
    01:57:07.771                : :01:57:07.646

  • Peso: 3.49

Sinopsis

Descargar Cafarnaúm: La Ciudad Olvidada (2018) 1080p Latino. Beirut, Líbano. Zain es un niño de doce años inteligente y valiente, que sobrevive a los peligros de las calles de la ciudad gracias a su ingenio. Huyendo de sus padres, y haciendo valer sus derechos, recurre a la justicia para demandarles por el ‘crimen’ de haberle dado la vida. Una fábula contemporánea de carácter político sobre un niño que se rebela contra la vida que le han impuesto vivir .

Audio Español Latino AC3 2.0 Capturado – Arabe AC3 5.1 Bluray

Ficha técnica

Video trailer de la película

Enlaces de descarga

Rip de Bluray

Descargar Cafarnaúm: La Ciudad Olvidada (2018) 1080p Latino




Aportes de DPeliculasHDmega la pass es:dpeliculashdmega.org Aportes de CinemaniaHD la pass es:cinemaniahdd.com
Guardado en : Drama , HD 1080p

Películas relacionadas

descargar Cafarnaúm: La Ciudad Olvidada (2018) 1080p Latino 1080p 1080p gratis, Cafarnaúm: La Ciudad Olvidada (2018) 1080p Latino 1080p mega 1 link, Cafarnaúm: La Ciudad Olvidada (2018) 1080p Latino 1080p pelicula completa, descargar Cafarnaúm: La Ciudad Olvidada (2018) 1080p Latino 1080p gratis en mega.

Cafarnaúm: La Ciudad Olvidada (2018) 1080p Latino pelicula full hd, Cafarnaúm: La Ciudad Olvidada (2018) 1080p Latino mega latino, Cafarnaúm: La Ciudad Olvidada (2018) 1080p Latino 4k latino, Cafarnaúm: La Ciudad Olvidada (2018) 1080p Latino pelicula completa, Cafarnaúm: La Ciudad Olvidada (2018) 1080p Latino descargar gratis, descargar Cafarnaúm: La Ciudad Olvidada (2018) 1080p Latino pelicula latino, Cafarnaúm: La Ciudad Olvidada (2018) 1080p Latino 1 link mega, Cafarnaúm: La Ciudad Olvidada (2018) 1080p Latino 1 link google drive, Cafarnaúm: La Ciudad Olvidada (2018) 1080p Latino hd 1080p latino.
Comentarios 0