×

¿Problemas para descargar con Mozilla, EDGE? Deshabilita la opción "Abrir vinculos en una pestaña nueva" tal como lo muestra ésta imagen.

Cape Fear (1962) REMUX 1080p Latino – CMHDD

138 vistas

Información de Cape Fear (1962) REMUX 1080p Latino – CMHDD

Datos de la película

  • Calidad: Full 1080p
  • Audio: Español Latino DTS 2.0 BLURAY - Ingles DTS 2.0 BLURAY
  • Subtitulos: Español Latino PGS
  • Resolución: 1920x1080p
  • Formato: MKV
  • Codec: H.264
  • Encoder: Dracarys
  • Mediainfo: Clic para Mostrar Datos Ver
  • Format                      : Matroska
    Format version              : Version 4
    File size                   : 23.7 GiB
    Duration                    : 1 h 45 min
    Overall bit rate mode       : Variable
    Overall bit rate            : 32.0 Mb/s
    Movie name                  : Cape Fear (1962) REMUX 1080p Latino - CMHDD
    Encoded date                : UTC 2021-10-03 18:54:50
    Writing application         : mkvmerge v17.0.0 ('Be Ur Friend') 64-bit
    Writing library             : libebml v1.3.5 + libmatroska v1.4.8

    Video
    ID                          : 1
    Format                      : VC-1
    Format profile              : Advanced@L3
    Codec ID                    : V_MS/VFW/FOURCC / WVC1
    Codec ID/Hint               : Microsoft
    Duration                    : 1 h 45 min
    Bit rate                    : 29.2 Mb/s
    Width                       : 1 920 pixels
    Height                      : 1 080 pixels
    Display aspect ratio        : 16:9
    Frame rate mode             : Constant
    Frame rate                  : 23.976 (24000/1001) FPS
    Color space                 : YUV
    Chroma subsampling          : 4:2:0
    Bit depth                   : 8 bits
    Scan type                   : Progressive
    Compression mode            : Lossy
    Bits/(Pixel*Frame)          : 0.588
    Stream size                 : 21.6 GiB (91%)
    Default                     : Yes
    Forced                      : No

    Audio #1
    ID                          : 2
    Format                      : DTS XLL
    Format/Info                 : Digital Theater Systems
    Commercial name             : DTS-HD Master Audio
    Codec ID                    : A_DTS
    Duration                    : 1 h 45 min
    Bit rate mode               : Variable
    Bit rate                    : 1 975 kb/s
    Channel(s)                  : 2 channels
    Channel layout              : L R
    Sampling rate               : 48.0 kHz
    Frame rate                  : 93.750 FPS (512 SPF)
    Bit depth                   : 24 bits
    Compression mode            : Lossless
    Stream size                 : 1.46 GiB (6%)
    Language                    : English
    Default                     : No
    Forced                      : No

    Audio #2
    ID                          : 3
    Format                      : DTS
    Format/Info                 : Digital Theater Systems
    Codec ID                    : A_DTS
    Duration                    : 1 h 45 min
    Bit rate mode               : Constant
    Bit rate                    : 768 kb/s
    Channel(s)                  : 2 channels
    Channel layout              : L R
    Sampling rate               : 48.0 kHz
    Frame rate                  : 93.750 FPS (512 SPF)
    Bit depth                   : 24 bits
    Compression mode            : Lossy
    Stream size                 : 582 MiB (2%)
    Language                    : Spanish
    Default                     : Yes
    Forced                      : No

    Text #1
    ID                          : 4
    Format                      : PGS
    Muxing mode                 : zlib
    Codec ID                    : S_HDMV/PGS
    Codec ID/Info               : Picture based subtitle format used on BDs/HD-DVDs
    Duration                    : 1 h 43 min
    Bit rate                    : 28.4 kb/s
    Count of elements           : 1852
    Stream size                 : 21.1 MiB (0%)
    Language                    : Spanish
    Default                     : No
    Forced                      : No

    Text #2
    ID                          : 5
    Format                      : PGS
    Muxing mode                 : zlib
    Codec ID                    : S_HDMV/PGS
    Codec ID/Info               : Picture based subtitle format used on BDs/HD-DVDs
    Duration                    : 1 h 43 min
    Bit rate                    : 32 b/s
    Count of elements           : 6
    Stream size                 : 24.5 KiB (0%)
    Language                    : Spanish
    Default                     : No
    Forced                      : No

    Menu
    00:00:00.000                : en:Chapter 1
    00:01:18.119                : en:Chapter 2
    00:05:33.374                : en:Chapter 3
    00:09:00.289                : en:Chapter 4
    00:13:23.677                : en:Chapter 5
    00:20:29.728                : en:Chapter 6
    00:25:30.403                : en:Chapter 7
    00:31:42.901                : en:Chapter 8
    00:42:52.695                : en:Chapter 9
    00:46:13.979                : en:Chapter 10
    00:54:06.451                : en:Chapter 11
    01:02:41.299                : en:Chapter 12
    01:07:34.508                : en:Chapter 13
    01:10:03.240                : en:Chapter 14
    01:18:11.061                : en:Chapter 15
    01:27:16.314                : en:Chapter 16
    01:42:25.180                : en:Chapter 17
    01:45:05.632                : en:Chapter 18

  • Peso: 23.7 GiB

Sinopsis

Gregory Peck interpreta a un abogado cuya peor pesadilla se convierte en realidad cuando el criminal que logró encarcelar regresa a la ciudad y empieza a molestar a su esposa (Pollu Bergen) y a su hija adolescente (Lori Martin). A pesar de la ayuda del jefe de policía (Martin Balsam) y de un detective privado (Telly Savalas), Peck no tiene ningún recurso legal para impedir que Mitchum deje de jugar con ellos al gato y al ratón. Finalmente Peck decide tenderle una trampa…

Ficha técnica

Video trailer de la película

Enlaces de descarga

Rip de Bluray

Descargar Cape Fear (1962) REMUX 1080p Latino – CMHDD


Aportes de DPeliculasHDmega la pass es:dpeliculashdmega.org Aportes de CinemaniaHD la pass es:cinemaniahdd.com
Guardado en : Drama , Suspenso

Películas relacionadas

  • Jaula Mental (2022) HD 1080p Latino

    Jaula Mental (2022) HD 1080p Latino

    2022
    Jaula Mental (2022) HD 1080p Latino

    1h 47m 2022

    Descargar Jaula Mental (2022) HD 1080p Latino. Cuando un asesino que imita otros crímenes comienza a...

    Director: Mauro Borrelli

    Género: Crimen

    Actores: Victoria Fox

  • Jaula Mental (2022) PLACEBO Full HD 1080p Latino

    Jaula Mental (2022) PLACEBO Full HD 1080p Latino

    2022
    Jaula Mental (2022) PLACEBO Full HD 1080p Latino

    1h 47m 2022

    Descargar Jaula Mental (2022) PLACEBO Full HD 1080p Latino. Cuando un asesino que imita otros crímenes...

    Director: Mauro Borrelli

    Género: Crimen

    Actores: Victoria Fox

  • Jaula Mental (2022) REMUX 1080p Latino

    Jaula Mental (2022) REMUX 1080p Latino

    2022
    Jaula Mental (2022) REMUX 1080p Latino

    1h 47m 2022

    Descargar Jaula Mental (2022) REMUX 1080p Latino. Cuando un asesino que imita otros crímenes comienza...

    Director: Mauro Borrelli

    Género: Crimen

    Actores: Victoria Fox

  • Transfusion (2023) HD 1080p Latino

    Transfusion (2023) HD 1080p Latino

    2023
    Transfusion (2023) HD 1080p Latino

    1h 45m 2023

    Descargar Transfusion (2023) HD 1080p Latino. Un antiguo agente de las Fuerzas Especiales se ve empujado...

    Director: Matt Nable

    Género: Crimen

    Actores: Trystan Go

  • Transfusion (2023) PLACEBO Full HD 1080p Latino

    Transfusion (2023) PLACEBO Full HD 1080p Latino

    2023
    Transfusion (2023) PLACEBO Full HD 1080p Latino

    1h 45m 2023

    Descargar Transfusion (2023) PLACEBO Full HD 1080p Latino. Un antiguo agente de las Fuerzas Especiales...

    Director: Matt Nable

    Género: Crimen

    Actores: Trystan Go

descargar Cape Fear (1962) REMUX 1080p Latino – CMHDD Full 1080p 1080p gratis, Cape Fear (1962) REMUX 1080p Latino – CMHDD Full 1080p mega 1 link, Cape Fear (1962) REMUX 1080p Latino – CMHDD Full 1080p pelicula completa, descargar Cape Fear (1962) REMUX 1080p Latino – CMHDD Full 1080p gratis en mega.

Cape Fear (1962) REMUX 1080p Latino – CMHDD pelicula full hd, Cape Fear (1962) REMUX 1080p Latino – CMHDD mega latino, Cape Fear (1962) REMUX 1080p Latino – CMHDD 4k latino, Cape Fear (1962) REMUX 1080p Latino – CMHDD pelicula completa, Cape Fear (1962) REMUX 1080p Latino – CMHDD descargar gratis, descargar Cape Fear (1962) REMUX 1080p Latino – CMHDD pelicula latino, Cape Fear (1962) REMUX 1080p Latino – CMHDD 1 link mega, Cape Fear (1962) REMUX 1080p Latino – CMHDD 1 link google drive, Cape Fear (1962) REMUX 1080p Latino – CMHDD hd 1080p latino.