×

¿Problemas para descargar con Mozilla, EDGE? Deshabilita la opción "Abrir vinculos en una pestaña nueva" tal como lo muestra ésta imagen.

Caos: El inicio (2021) AMZN Web-DL 1080p Latino

317 vistas

Información de Caos: El inicio (2021) AMZN Web-DL 1080p Latino

Datos de la película

  • Calidad: WEBDL
  • Audio: Español Latino AC3 2.0 WEB-DL - Ingles AC3 5.1 WEB-DL
  • Subtitulos: Español Latino SRT- FORZADOS SRT
  • Resolución: 1920x800p
  • Formato: MKV
  • Codec: H.264
  • Encoder: Melkor
  • Mediainfo: Clic para Mostrar Datos Ver
  • Caos El Inicio (2021) AMZN Web-DL 1080p Latino.mkv
    Format                      : Matroska
    Format version              : Version 4
    File size                   : 5.96 GiB
    Duration                    : 1 h 48 min
    Overall bit rate            : 7 836 kb/s
    Movie name                  : Chaos Walking (2021) CinemaniaHDD.Net
    Encoded date                : UTC 2021-04-05 01:50:10
    Writing application         : mkvmerge v51.0.0 ('I Wish') 64-bit
    Writing library             : libebml v1.4.0 + libmatroska v1.6.2
    Attachments                 : CINEMANIAHD.png

    Video
    ID                          : 1
    Format                      : AVC
    Format/Info                 : Advanced Video Codec
    Format profile              : High@L4
    Format settings             : CABAC / 4 Ref Frames
    Format settings, CABAC      : Yes
    Format settings, Reference  : 4 frames
    Codec ID                    : V_MPEG4/ISO/AVC
    Duration                    : 1 h 48 min
    Bit rate mode               : Constant
    Bit rate                    : 6 938 kb/s
    Nominal bit rate            : 10 000 kb/s
    Width                       : 1 920 pixels
    Height                      : 800 pixels
    Display aspect ratio        : 2.40:1
    Frame rate mode             : Constant
    Frame rate                  : 23.976 (24000/1001) FPS
    Color space                 : YUV
    Chroma subsampling          : 4:2:0
    Bit depth                   : 8 bits
    Scan type                   : Progressive
    Bits/(Pixel*Frame)          : 0.188
    Stream size                 : 5.28 GiB (89%)
    Title                       : WEB HD1080p [CinemaniaHDD]
    Default                     : Yes
    Forced                      : No
    Color range                 : Limited
    Color primaries             : BT.709
    Transfer characteristics    : BT.709
    Matrix coefficients         : BT.709

    Audio #1
    ID                          : 2
    Format                      : AC-3
    Format/Info                 : Audio Coding 3
    Commercial name             : Dolby Digital
    Codec ID                    : A_AC3
    Duration                    : 1 h 48 min
    Bit rate mode               : Constant
    Bit rate                    : 256 kb/s
    Channel(s)                  : 2 channels
    Channel layout              : L R
    Sampling rate               : 48.0 kHz
    Frame rate                  : 31.250 FPS (1536 SPF)
    Compression mode            : Lossy
    Stream size                 : 199 MiB (3%)
    Title                       : Español Latino [CinemaniaHDD]
    Language                    : Spanish
    Service kind                : Complete Main
    Default                     : Yes
    Forced                      : No

    Audio #2
    ID                          : 3
    Format                      : E-AC-3
    Format/Info                 : Enhanced AC-3
    Commercial name             : Dolby Digital Plus
    Codec ID                    : A_EAC3
    Duration                    : 1 h 48 min
    Bit rate mode               : Constant
    Bit rate                    : 640 kb/s
    Channel(s)                  : 6 channels
    Channel layout              : L R C LFE Ls Rs
    Sampling rate               : 48.0 kHz
    Frame rate                  : 31.250 FPS (1536 SPF)
    Compression mode            : Lossy
    Stream size                 : 498 MiB (8%)
    Title                       : Ingles [CinemaniaHDD]
    Language                    : English
    Service kind                : Complete Main
    Default                     : No
    Forced                      : No

    Text #1
    ID                          : 4
    Format                      : UTF-8
    Codec ID                    : S_TEXT/UTF8
    Codec ID/Info               : UTF-8 Plain Text
    Duration                    : 1 h 36 min
    Bit rate                    : 0 b/s
    Count of elements           : 7
    Stream size                 : 243 Bytes (0%)
    Title                       : Forzados-SRT [CinemaniaHDD]
    Language                    : Spanish
    Default                     : Yes
    Forced                      : No

    Text #2
    ID                          : 5
    Format                      : UTF-8
    Codec ID                    : S_TEXT/UTF8
    Codec ID/Info               : UTF-8 Plain Text
    Duration                    : 1 h 38 min
    Bit rate                    : 66 b/s
    Count of elements           : 1508
    Stream size                 : 48.2 KiB (0%)
    Title                       : Español-SRT [CinemaniaHDD]
    Language                    : Spanish
    Default                     : No
    Forced                      : No

    Text #3
    ID                          : 6
    Format                      : UTF-8
    Codec ID                    : S_TEXT/UTF8
    Codec ID/Info               : UTF-8 Plain Text
    Duration                    : 1 h 37 min
    Bit rate                    : 56 b/s
    Count of elements           : 1504
    Stream size                 : 40.6 KiB (0%)
    Title                       : Ingles-SRT [CinemaniaHDD]
    Language                    : English
    Default                     : No
    Forced                      : No

  • Peso: 5.96 GiB

Sinopsis

Descargar Caos: El inicio (2021) AMZN Web-DL 1080p Latino. Todd Hewitt es el último chico de Prentisstown, una pequeña comunidad cuya peculiaridad (aparte del hecho de que no hay mujeres) es que todos escuchan los pensamientos ajenos, lo que es definido como Ruido, un ruido que nunca cesa. Todd está contento porque sólo falta un mes para que sea su decimotercer cumpleaños y por fin, se convierta en hombre. Pero entonces, en uno de sus paseos por el bosque con su fiel perro, encuentra algo inesperado que cambiará su mundo para siempre: el silencio. O como lo define Todd: un agujero en el ruido.

Ficha técnica

Video trailer de la película

Enlaces de descarga

Rip de Bluray

Descargar Caos: El inicio (2021) AMZN Web-DL 1080p Latino




Aportes de DPeliculasHDmega la pass es:dpeliculashdmega.org Aportes de CinemaniaHD la pass es:cinemaniahdd.com

Películas relacionadas

descargar Caos: El inicio (2021) AMZN Web-DL 1080p Latino WEBDL 1080p gratis, Caos: El inicio (2021) AMZN Web-DL 1080p Latino WEBDL mega 1 link, Caos: El inicio (2021) AMZN Web-DL 1080p Latino WEBDL pelicula completa, descargar Caos: El inicio (2021) AMZN Web-DL 1080p Latino WEBDL gratis en mega.

Caos: El inicio (2021) AMZN Web-DL 1080p Latino pelicula full hd, Caos: El inicio (2021) AMZN Web-DL 1080p Latino mega latino, Caos: El inicio (2021) AMZN Web-DL 1080p Latino 4k latino, Caos: El inicio (2021) AMZN Web-DL 1080p Latino pelicula completa, Caos: El inicio (2021) AMZN Web-DL 1080p Latino descargar gratis, descargar Caos: El inicio (2021) AMZN Web-DL 1080p Latino pelicula latino, Caos: El inicio (2021) AMZN Web-DL 1080p Latino 1 link mega, Caos: El inicio (2021) AMZN Web-DL 1080p Latino 1 link google drive, Caos: El inicio (2021) AMZN Web-DL 1080p Latino hd 1080p latino.
Comentarios 0