×

¿Problemas para descargar con Mozilla, EDGE? Deshabilita la opción "Abrir vinculos en una pestaña nueva" tal como lo muestra ésta imagen.

Cantando bajo la lluvia (1952) [60th Anniversary Ultimate Collector’s Edition] REMUX 1080p Latino – CMHDD

390 vistas

Información de Cantando bajo la lluvia (1952) [60th Anniversary Ultimate Collector’s Edition] REMUX 1080p Latino – CMHDD

Datos de la película

  • Calidad: Full 1080p
  • Audio: Se especifica abajo de la Sinopsis
  • Subtitulos: Español Latino SRT
  • Resolución: 1920x1080p
  • Formato: MKV
  • Codec: H.264
  • Encoder: Dracarys
  • Mediainfo: Clic para Mostrar Datos Ver
  • Format                      : Matroska
    Format version              : Version 4
    File size                   : 23.1 GiB
    Duration                    : 1 h 42 min
    Overall bit rate mode       : Variable
    Overall bit rate            : 32.2 Mb/s
    Movie name                  : Cantando bajo la lluvia (1952) [60th Anniversary Ultimate Collector's Edition] REMUX 1080p Latino - CMHDD
    Encoded date                : UTC 2020-06-24 22:52:34
    Writing application         : mkvmerge v46.0.0 ('No Deeper Escape') 64-bit
    Writing library             : libebml v1.3.10 + libmatroska v1.5.2

    Video
    ID                          : 1
    Format                      : AVC
    Format/Info                 : Advanced Video Codec
    Format profile              : High@L4.1
    Format settings             : CABAC / 2 Ref Frames
    Format settings, CABAC      : Yes
    Format settings, Reference  : 2 frames
    Codec ID                    : V_MPEG4/ISO/AVC
    Duration                    : 1 h 42 min
    Bit rate mode               : Variable
    Bit rate                    : 29.8 Mb/s
    Width                       : 1 920 pixels
    Height                      : 1 080 pixels
    Display aspect ratio        : 16:9
    Frame rate mode             : Constant
    Frame rate                  : 23.976 (24000/1001) FPS
    Color space                 : YUV
    Chroma subsampling          : 4:2:0
    Bit depth                   : 8 bits
    Scan type                   : Progressive
    Bits/(Pixel*Frame)          : 0.600
    Stream size                 : 21.4 GiB (93%)
    Default                     : Yes
    Forced                      : No

    Audio #1
    ID                          : 2
    Format                      : AC-3
    Format/Info                 : Audio Coding 3
    Commercial name             : Dolby Digital
    Codec ID                    : A_AC3
    Duration                    : 1 h 42 min
    Bit rate mode               : Constant
    Bit rate                    : 192 kb/s
    Channel(s)                  : 1 channel
    Channel layout              : C
    Sampling rate               : 48.0 kHz
    Frame rate                  : 31.250 FPS (1536 SPF)
    Compression mode            : Lossy
    Stream size                 : 141 MiB (1%)
    Language                    : Spanish
    Service kind                : Complete Main
    Default                     : Yes
    Forced                      : No

    Audio #2
    ID                          : 3
    Format                      : DTS XLL
    Format/Info                 : Digital Theater Systems
    Commercial name             : DTS-HD Master Audio
    Codec ID                    : A_DTS
    Duration                    : 1 h 42 min
    Bit rate mode               : Variable
    Bit rate                    : 2 180 kb/s
    Channel(s)                  : 6 channels
    Channel layout              : C L R Ls Rs LFE
    Sampling rate               : 48.0 kHz
    Frame rate                  : 93.750 FPS (512 SPF)
    Bit depth                   : 24 bits
    Compression mode            : Lossless
    Stream size                 : 1.57 GiB (7%)
    Language                    : English
    Default                     : No
    Forced                      : No

    Text
    ID                          : 4
    Format                      : UTF-8
    Codec ID                    : S_TEXT/UTF8
    Codec ID/Info               : UTF-8 Plain Text
    Duration                    : 1 h 42 min
    Bit rate                    : 69 b/s
    Count of elements           : 1473
    Stream size                 : 52.4 KiB (0%)
    Language                    : Spanish
    Default                     : No
    Forced                      : No
     

  • Peso: 23.1 GiB

Sinopsis

Antes de conocer a la aspirante a actriz Cathy Seldon, el ídolo del cine mudo Don Lockwood pensaba que lo tenía todo; fama, fortuna y éxito. Pero, tras conocerla, se da cuenta de que ella es lo que realmente faltaba en su vida. Con el nacimiento del cine sonoro, Don quiere filmar los musicales con Kathy, pero entre ambos se interpone la reina del cine mudo Lina Lamont.

 

Latino:  AC3 1.0  –  Ingles: DTS 2.0

Ficha técnica

Video trailer de la película

Enlaces de descarga

Rip de Bluray

Descargar Cantando bajo la lluvia (1952) [60th Anniversary Ultimate Collector’s Edition] REMUX 1080p Latino – CMHDD




Aportes de DPeliculasHDmega la pass es:dpeliculashdmega.org Aportes de CinemaniaHD la pass es:cinemaniahdd.com
Guardado en : Comedia , Música , Remux , Romance

Películas relacionadas

  • Jaula Mental (2022) REMUX 1080p Latino

    Jaula Mental (2022) REMUX 1080p Latino

    2022
    Jaula Mental (2022) REMUX 1080p Latino

    1h 47m 2022

    Descargar Jaula Mental (2022) REMUX 1080p Latino. Cuando un asesino que imita otros crímenes comienza...

    Director: Mauro Borrelli

    Género: Crimen

    Actores: Victoria Fox

  • Transfusion (2023) REMUX 1080p Latino

    Transfusion (2023) REMUX 1080p Latino

    2023
    Transfusion (2023) REMUX 1080p Latino

    1h 45m 2023

    Descargar Transfusion (2023) REMUX 1080p Latino. Un antiguo agente de las Fuerzas Especiales se ve empujado...

    Director: Matt Nable

    Género: Crimen

    Actores: Trystan Go

  • Gladiador (2000) EXTENDED CUT 1080p Latino

    Gladiador (2000) EXTENDED CUT 1080p Latino

    2000
    Gladiador (2000) EXTENDED CUT 1080p Latino

    2h 35m 2000

    Gladiador (2000) EXTENDED CUT 1080p Latino. Máximo, General de las Legiones Romanas, es querido por...

    Director: Ridley Scott

    Género: Acción

    Actores: Tony Curran

  • Mi amigo el dragón (2016) REMUX 1080p Latino

    Mi amigo el dragón (2016) REMUX 1080p Latino

    2016
    Mi amigo el dragón (2016) REMUX 1080p Latino

    1h 43m 2016

    Descargar Mi amigo el dragón (2016) REMUX 1080p Latino. Durante años el Sr. Meacham, un viejo tallador...

    Director: Joe Nolan

    Género: Aventura

    Actores: William J. Rawbone

  • El discurso del Rey (2010) REMUX 1080p Latino

    El discurso del Rey (2010) REMUX 1080p Latino

    2010
    El discurso del Rey (2010) REMUX 1080p Latino

    1h 58m 2010

    Descargar El discurso del Rey (2010) REMUX 1080p Latino. El duque de York se convirtió en rey de Gran...

    Director: Tom Hooper

    Género: Drama

    Actores: Tony Earnshaw

descargar Cantando bajo la lluvia (1952) [60th Anniversary Ultimate Collector’s Edition] REMUX 1080p Latino – CMHDD Full 1080p 1080p gratis, Cantando bajo la lluvia (1952) [60th Anniversary Ultimate Collector’s Edition] REMUX 1080p Latino – CMHDD Full 1080p mega 1 link, Cantando bajo la lluvia (1952) [60th Anniversary Ultimate Collector’s Edition] REMUX 1080p Latino – CMHDD Full 1080p pelicula completa, descargar Cantando bajo la lluvia (1952) [60th Anniversary Ultimate Collector’s Edition] REMUX 1080p Latino – CMHDD Full 1080p gratis en mega.

Cantando bajo la lluvia (1952) [60th Anniversary Ultimate Collector’s Edition] REMUX 1080p Latino – CMHDD pelicula full hd, Cantando bajo la lluvia (1952) [60th Anniversary Ultimate Collector’s Edition] REMUX 1080p Latino – CMHDD mega latino, Cantando bajo la lluvia (1952) [60th Anniversary Ultimate Collector’s Edition] REMUX 1080p Latino – CMHDD 4k latino, Cantando bajo la lluvia (1952) [60th Anniversary Ultimate Collector’s Edition] REMUX 1080p Latino – CMHDD pelicula completa, Cantando bajo la lluvia (1952) [60th Anniversary Ultimate Collector’s Edition] REMUX 1080p Latino – CMHDD descargar gratis, descargar Cantando bajo la lluvia (1952) [60th Anniversary Ultimate Collector’s Edition] REMUX 1080p Latino – CMHDD pelicula latino, Cantando bajo la lluvia (1952) [60th Anniversary Ultimate Collector’s Edition] REMUX 1080p Latino – CMHDD 1 link mega, Cantando bajo la lluvia (1952) [60th Anniversary Ultimate Collector’s Edition] REMUX 1080p Latino – CMHDD 1 link google drive, Cantando bajo la lluvia (1952) [60th Anniversary Ultimate Collector’s Edition] REMUX 1080p Latino – CMHDD hd 1080p latino.
Comentarios 0