×

¿Problemas para descargar con Mozilla, EDGE? Deshabilita la opción "Abrir vinculos en una pestaña nueva" tal como lo muestra ésta imagen.

Cantando bajo la lluvia (1952) [60th Anniversary Ultimate Collector’s Edition] Full HD 1080p Latino – CMHDD

317 vistas

Información de Cantando bajo la lluvia (1952) [60th Anniversary Ultimate Collector’s Edition] Full HD 1080p Latino – CMHDD

Datos de la película

  • Calidad: Full 1080p
  • Audio: Se especifica abajo de la Sinopsis
  • Subtitulos: Español Latino SRT
  • Resolución: Dracarys
  • Formato: MKV
  • Codec: H.264
  • Encoder: Dracarys
  • Mediainfo: Clic para Mostrar Datos Ver
  • Format                      : Matroska
    Format version              : Version 4
    File size                   : 9.58 GiB
    Duration                    : 1 h 42 min
    Overall bit rate mode       : Variable
    Overall bit rate            : 13.3 Mb/s
    Movie name                  : Cantando bajo la lluvia (1952) [60th Anniversary Ultimate Collector's Edition] Full HD 1080p Latino - CMHDD
    Encoded date                : UTC 2020-06-24 22:57:07
    Writing application         : mkvmerge v46.0.0 ('No Deeper Escape') 64-bit
    Writing library             : libebml v1.3.10 + libmatroska v1.5.2

    Video
    ID                          : 1
    Format                      : AVC
    Format/Info                 : Advanced Video Codec
    Format profile              : High@L4.1
    Format settings             : CABAC / 4 Ref Frames
    Format settings, CABAC      : Yes
    Format settings, Reference  : 4 frames
    Codec ID                    : V_MPEG4/ISO/AVC
    Duration                    : 1 h 42 min
    Bit rate                    : 11.0 Mb/s
    Width                       : 1 920 pixels
    Height                      : 1 080 pixels
    Display aspect ratio        : 16:9
    Frame rate mode             : Constant
    Frame rate                  : 23.976 (24000/1001) FPS
    Color space                 : YUV
    Chroma subsampling          : 4:2:0
    Bit depth                   : 8 bits
    Scan type                   : Progressive
    Bits/(Pixel*Frame)          : 0.221
    Stream size                 : 7.87 GiB (82%)
    Writing library             : x264 core 157 r2935 545de2f
    Encoding settings           : cabac=1 / ref=4 / deblock=1:0:0 / analyse=0x3:0x133 / me=tesa / subme=11 / psy=1 / psy_rd=1.00:0.00 / mixed_ref=1 / me_range=24 / chroma_me=1 / trellis=2 / 8x8dct=1 / cqm=0 / deadzone=21,11 / fast_pskip=0 / chroma_qp_offset=-2 / threads=24 / lookahead_threads=6 / sliced_threads=0 / nr=0 / decimate=1 / interlaced=0 / bluray_compat=0 / constrained_intra=0 / bframes=16 / b_pyramid=2 / b_adapt=2 / b_bias=0 / direct=3 / weightb=1 / open_gop=0 / weightp=2 / keyint=240 / keyint_min=24 / scenecut=40 / intra_refresh=0 / rc_lookahead=60 / rc=crf / mbtree=1 / crf=20.0 / qcomp=0.60 / qpmin=0 / qpmax=69 / qpstep=4 / vbv_maxrate=62500 / vbv_bufsize=78125 / crf_max=0.0 / nal_hrd=none / filler=0 / ip_ratio=1.40 / aq=1:1.00
    Default                     : Yes
    Forced                      : No
    Color range                 : Limited
    Color primaries             : BT.709
    Transfer characteristics    : BT.709
    Matrix coefficients         : BT.709

    Audio #1
    ID                          : 2
    Format                      : AC-3
    Format/Info                 : Audio Coding 3
    Commercial name             : Dolby Digital
    Codec ID                    : A_AC3
    Duration                    : 1 h 42 min
    Bit rate mode               : Constant
    Bit rate                    : 192 kb/s
    Channel(s)                  : 1 channel
    Channel layout              : C
    Sampling rate               : 48.0 kHz
    Frame rate                  : 31.250 FPS (1536 SPF)
    Compression mode            : Lossy
    Stream size                 : 141 MiB (1%)
    Language                    : Spanish
    Service kind                : Complete Main
    Default                     : Yes
    Forced                      : No

    Audio #2
    ID                          : 3
    Format                      : DTS XLL
    Format/Info                 : Digital Theater Systems
    Commercial name             : DTS-HD Master Audio
    Codec ID                    : A_DTS
    Duration                    : 1 h 42 min
    Bit rate mode               : Variable
    Bit rate                    : 2 180 kb/s
    Channel(s)                  : 6 channels
    Channel layout              : C L R Ls Rs LFE
    Sampling rate               : 48.0 kHz
    Frame rate                  : 93.750 FPS (512 SPF)
    Bit depth                   : 24 bits
    Compression mode            : Lossless
    Stream size                 : 1.57 GiB (16%)
    Language                    : English
    Default                     : No
    Forced                      : No

    Text
    ID                          : 4
    Format                      : UTF-8
    Codec ID                    : S_TEXT/UTF8
    Codec ID/Info               : UTF-8 Plain Text
    Duration                    : 1 h 42 min
    Bit rate                    : 69 b/s
    Count of elements           : 1473
    Stream size                 : 52.4 KiB (0%)
    Language                    : Spanish
    Default                     : No
    Forced                      : No

    Menu
    00:00:00.000                : :Chapter 1
    00:01:36.513                : :Chapter 2
    00:05:21.947                : :Chapter 3
    00:07:50.220                : :Chapter 4
    00:11:09.002                : :Chapter 5
    00:13:00.154                : :Chapter 6
    00:15:22.964                : :Chapter 7
    00:19:33.130                : :Chapter 8
    00:22:34.228                : :Chapter 9
    00:25:34.158                : :Chapter 10
    00:27:14.007                : :Chapter 11
    00:30:55.687                : :Chapter 12
    00:33:16.578                : :Chapter 13
    00:35:26.082                : :Chapter 14
    00:38:45.907                : :Chapter 15
    00:41:34.742                : :Chapter 16
    00:46:12.979                : :Chapter 17
    00:48:02.588                : :Chapter 18
    00:51:26.125                : :Chapter 19
    00:53:38.006                : :Chapter 20
    00:55:21.902                : :Chapter 21
    00:59:35.697                : :Chapter 22
    01:01:25.348                : :Chapter 23
    01:05:13.201                : :Chapter 24
    01:07:06.356                : :Chapter 25
    01:11:53.810                : :Chapter 26
    01:13:27.028                : :Chapter 27
    01:15:26.605                : :Chapter 28
    01:17:51.542                : :Chapter 29
    01:19:41.652                : :Chapter 30
    01:22:39.288                : :Chapter 31
    01:24:07.960                : :Chapter 32
    01:27:19.317                : :Chapter 33
    01:29:07.551                : :Chapter 34
    01:34:15.525                : :Chapter 35
    01:35:52.080                : :Chapter 36
    01:38:36.411                : :Chapter 37
    01:41:06.310                : :Chapter 38

  • Peso: 9.58 GiB

Sinopsis

Antes de conocer a la aspirante a actriz Cathy Seldon, el ídolo del cine mudo Don Lockwood pensaba que lo tenía todo; fama, fortuna y éxito. Pero, tras conocerla, se da cuenta de que ella es lo que realmente faltaba en su vida. Con el nacimiento del cine sonoro, Don quiere filmar los musicales con Kathy, pero entre ambos se interpone la reina del cine mudo Lina Lamont.

 

Latino:  AC3 1.0  –  Ingles: DTS 2.0

Ficha técnica

Video trailer de la película

Enlaces de descarga

Rip de Bluray

Descargar Cantando bajo la lluvia (1952) [60th Anniversary Ultimate Collector’s Edition] Full HD 1080p Latino – CMHDD




Aportes de DPeliculasHDmega la pass es:dpeliculashdmega.org Aportes de CinemaniaHD la pass es:cinemaniahdd.com

Películas relacionadas

  • Tren Bala (2022) WEB-DL 4K UHD HDR Latino

    Tren Bala (2022) WEB-DL 4K UHD HDR Latino

    2022
    Tren Bala (2022) WEB-DL 4K UHD HDR Latino

    2h 7m 2022

    Descargar Tren Bala (2022) WEB-DL 4K UHD HDR Latino. El desafortunado asesino "Catarina" está decidido...

    Director: Paul Barry

    Género: 4K HDR

    Actores: Zooey Miyoshi

  • Tren Bala (2022) AMZN WEB-DL 1080p Latino

    Tren Bala (2022) AMZN WEB-DL 1080p Latino

    2022
    Tren Bala (2022) AMZN WEB-DL 1080p Latino

    2h 7m 2022

    Descargar Tren Bala (2022) AMZN WEB-DL 1080p Latino. Cinco asesinos a sueldo se encuentran a bordo de...

    Director: Paul Barry

    Género: Acción

    Actores: Zooey Miyoshi

  • Rick y Morty (2022) Temporada 6 WEB-DL 1080p Latino

    Rick y Morty (2022) Temporada 6 WEB-DL 1080p Latino

    2013
    Rick y Morty (2022) Temporada 6 WEB-DL 1080p Latino

    0h 22m 2013

    Comedia animada que narra las aventuras de un científico loco Rick Sánchez, que regresa después de...

    Director: Justin Roiland

    Género: Action & Adventure

    Actores: Spencer Grammer

descargar Cantando bajo la lluvia (1952) [60th Anniversary Ultimate Collector’s Edition] Full HD 1080p Latino – CMHDD Full 1080p 1080p gratis, Cantando bajo la lluvia (1952) [60th Anniversary Ultimate Collector’s Edition] Full HD 1080p Latino – CMHDD Full 1080p mega 1 link, Cantando bajo la lluvia (1952) [60th Anniversary Ultimate Collector’s Edition] Full HD 1080p Latino – CMHDD Full 1080p pelicula completa, descargar Cantando bajo la lluvia (1952) [60th Anniversary Ultimate Collector’s Edition] Full HD 1080p Latino – CMHDD Full 1080p gratis en mega.

Cantando bajo la lluvia (1952) [60th Anniversary Ultimate Collector’s Edition] Full HD 1080p Latino – CMHDD pelicula full hd, Cantando bajo la lluvia (1952) [60th Anniversary Ultimate Collector’s Edition] Full HD 1080p Latino – CMHDD mega latino, Cantando bajo la lluvia (1952) [60th Anniversary Ultimate Collector’s Edition] Full HD 1080p Latino – CMHDD 4k latino, Cantando bajo la lluvia (1952) [60th Anniversary Ultimate Collector’s Edition] Full HD 1080p Latino – CMHDD pelicula completa, Cantando bajo la lluvia (1952) [60th Anniversary Ultimate Collector’s Edition] Full HD 1080p Latino – CMHDD descargar gratis, descargar Cantando bajo la lluvia (1952) [60th Anniversary Ultimate Collector’s Edition] Full HD 1080p Latino – CMHDD pelicula latino, Cantando bajo la lluvia (1952) [60th Anniversary Ultimate Collector’s Edition] Full HD 1080p Latino – CMHDD 1 link mega, Cantando bajo la lluvia (1952) [60th Anniversary Ultimate Collector’s Edition] Full HD 1080p Latino – CMHDD 1 link google drive, Cantando bajo la lluvia (1952) [60th Anniversary Ultimate Collector’s Edition] Full HD 1080p Latino – CMHDD hd 1080p latino.
Comentarios 0