×

¿Problemas para descargar con Mozilla, EDGE? Deshabilita la opción "Abrir vinculos en una pestaña nueva" tal como lo muestra ésta imagen.

Candyman (2021) REMUX 1080p Latino

121 vistas

Información de Candyman (2021) REMUX 1080p Latino

Datos de la película

  • Calidad: Full 1080p
  • Audio: Se especifica abajo de la Sinopsis
  • Subtitulos: Español Latino PGS - Ingles PGS
  • Resolución: 1920x1080p
  • Formato: MKV
  • Codec: H.264
  • Encoder: Melkor
  • Mediainfo: Clic para Mostrar Datos Ver
  • Candyman (2021) REMUX 1080p Latino.mkv
    Format                      : Matroska
    Format version              : Version 4
    File size                   : 23.0 GiB
    Duration                    : 1 h 31 min
    Overall bit rate mode       : Variable
    Overall bit rate            : 36.2 Mb/s
    Movie name                  : Candyman (2021) CinemaniaHDD.Net
    Encoded date                : UTC 2021-11-10 05:05:00
    Writing application         : mkvmerge v56.1.0 ('My Friend') 64-bit
    Writing library             : libebml v1.4.2 + libmatroska v1.6.4
    Attachments                 : CINEMANIAHD.png

    Video
    ID                          : 1
    Format                      : AVC
    Format/Info                 : Advanced Video Codec
    Format profile              : High@L4.1
    Format settings             : CABAC / 2 Ref Frames
    Format settings, CABAC      : Yes
    Format settings, Reference  : 2 frames
    Format settings, GOP        : M=1, N=10
    Codec ID                    : V_MPEG4/ISO/AVC
    Duration                    : 1 h 31 min
    Bit rate mode               : Variable
    Bit rate                    : 30.6 Mb/s
    Width                       : 1 920 pixels
    Height                      : 1 080 pixels
    Display aspect ratio        : 16:9
    Frame rate mode             : Constant
    Frame rate                  : 23.976 (24000/1001) FPS
    Color space                 : YUV
    Chroma subsampling          : 4:2:0
    Bit depth                   : 8 bits
    Scan type                   : Progressive
    Bits/(Pixel*Frame)          : 0.616
    Stream size                 : 19.5 GiB (85%)
    Title                       : REMUX HD1080p [CinemaniaHDD]
    Language                    : English
    Default                     : Yes
    Forced                      : Yes

    Audio #1
    ID                          : 2
    Format                      : AC-3
    Format/Info                 : Audio Coding 3
    Commercial name             : Dolby Digital
    Codec ID                    : A_AC3
    Duration                    : 1 h 31 min
    Bit rate mode               : Constant
    Bit rate                    : 640 kb/s
    Channel(s)                  : 6 channels
    Channel layout              : L R C LFE Ls Rs
    Sampling rate               : 48.0 kHz
    Frame rate                  : 31.250 FPS (1536 SPF)
    Compression mode            : Lossy
    Stream size                 : 417 MiB (2%)
    Title                       : Español Latino [CinemaniaHDD]
    Language                    : Spanish
    Service kind                : Complete Main
    Default                     : Yes
    Forced                      : Yes

    Audio #2
    ID                          : 3
    Format                      : MLP FBA 16-ch
    Format/Info                 : Meridian Lossless Packing FBA with 16-channel presentation
    Commercial name             : Dolby TrueHD with Dolby Atmos
    Codec ID                    : A_TRUEHD
    Duration                    : 1 h 31 min
    Bit rate mode               : Variable
    Bit rate                    : 4 349 kb/s
    Maximum bit rate            : 8 181 kb/s
    Channel(s)                  : 8 channels
    Channel layout              : L R C LFE Ls Rs Lb Rb
    Sampling rate               : 48.0 kHz
    Frame rate                  : 1 200.000 FPS (40 SPF)
    Compression mode            : Lossless
    Stream size                 : 2.77 GiB (12%)
    Title                       : Ingles [CinemaniaHDD]
    Language                    : English
    Default                     : No
    Forced                      : No
    Number of dynamic objects   : 11
    Bed channel count           : 1 channel
    Bed channel configuration   : LFE

    Audio #3
    ID                          : 4
    Format                      : AC-3
    Format/Info                 : Audio Coding 3
    Commercial name             : Dolby Digital
    Codec ID                    : A_AC3
    Duration                    : 1 h 31 min
    Bit rate mode               : Constant
    Bit rate                    : 448 kb/s
    Channel(s)                  : 6 channels
    Channel layout              : L R C LFE Ls Rs
    Sampling rate               : 48.0 kHz
    Frame rate                  : 31.250 FPS (1536 SPF)
    Compression mode            : Lossy
    Stream size                 : 292 MiB (1%)
    Title                       : Ingles AC3 [CinemaniaHDD]
    Language                    : English
    Service kind                : Complete Main
    Default                     : No
    Forced                      : No

    Text #1
    ID                          : 5
    Format                      : PGS
    Muxing mode                 : zlib
    Codec ID                    : S_HDMV/PGS
    Codec ID/Info               : Picture based subtitle format used on BDs/HD-DVDs
    Duration                    : 28 min 43 s
    Bit rate                    : 250 b/s
    Count of elements           : 4
    Stream size                 : 52.6 KiB (0%)
    Title                       : Forzados-PGS [CinemaniaHDD]
    Language                    : Spanish
    Default                     : No
    Forced                      : No

    Text #2
    ID                          : 6
    Format                      : PGS
    Muxing mode                 : zlib
    Codec ID                    : S_HDMV/PGS
    Codec ID/Info               : Picture based subtitle format used on BDs/HD-DVDs
    Duration                    : 1 h 30 min
    Bit rate                    : 31.5 kb/s
    Count of elements           : 2082
    Stream size                 : 20.5 MiB (0%)
    Title                       : Español-PGS [CinemaniaHDD]
    Language                    : Spanish
    Default                     : No
    Forced                      : No

    Text #3
    ID                          : 7
    Format                      : PGS
    Muxing mode                 : zlib
    Codec ID                    : S_HDMV/PGS
    Codec ID/Info               : Picture based subtitle format used on BDs/HD-DVDs
    Duration                    : 1 h 26 min
    Bit rate                    : 40.6 kb/s
    Count of elements           : 2512
    Stream size                 : 25.0 MiB (0%)
    Title                       : Ingles-PGS [CinemaniaHDD]
    Language                    : English
    Default                     : No
    Forced                      : No

    Text #4
    ID                          : 8
    Format                      : UTF-8
    Codec ID                    : S_TEXT/UTF8
    Codec ID/Info               : UTF-8 Plain Text
    Duration                    : 1 h 28 min
    Bit rate                    : 0 b/s
    Count of elements           : 15
    Stream size                 : 500 Bytes (0%)
    Title                       : Forzados-SRT [CinemaniaHDD]
    Language                    : Spanish
    Default                     : Yes
    Forced                      : Yes

    Text #5
    ID                          : 9
    Format                      : UTF-8
    Codec ID                    : S_TEXT/UTF8
    Codec ID/Info               : UTF-8 Plain Text
    Duration                    : 1 h 30 min
    Bit rate                    : 47 b/s
    Count of elements           : 1038
    Stream size                 : 31.4 KiB (0%)
    Title                       : Español-SRT [CinemaniaHDD]
    Language                    : Spanish
    Default                     : No
    Forced                      : No

    Menu
    00:00:00.000                : Chapter 01
    00:06:34.269                : Chapter 02
    00:12:45.515                : Chapter 03
    00:18:00.621                : Chapter 04
    00:21:03.888                : Chapter 05
    00:24:59.915                : Chapter 06
    00:30:13.311                : Chapter 07
    00:34:37.117                : Chapter 08
    00:38:23.760                : Chapter 09
    00:41:22.772                : Chapter 10
    00:46:14.480                : Chapter 11
    00:49:43.647                : Chapter 12
    00:53:53.313                : Chapter 13
    00:57:36.870                : Chapter 14
    01:00:56.027                : Chapter 15
    01:03:32.434                : Chapter 16
    01:08:56.132                : Chapter 17
    01:13:33.034                : Chapter 18
    01:20:20.399                : Chapter 19
    01:26:08.330                : Chapter 20

  • Peso: 23.0 GiB

Sinopsis

Descargar Candyman (2021) REMUX 1080p Latino. Desde tiempos inmemoriales, los proyectos residenciales del barrio de Cabrini Green en Chicago se han visto amenazados por la historia de un supuesto asesino en serie con un gancho por mano al que se invoca fácilmente repitiendo su nombre cinco veces frente a un espejo. Hoy, una década después de que la última torre de Cabrini fuese derruída, el artista visual Anthony McCoy (Yahya Abdul-Mateen) y su novia Brianna Cartwright (Teyonah Parris), se mudan a un apartamento de lujo de un barrio ahora irreconocible, repleto de millennials y de personas que, por lo general, desconocen su oscuro pasado.

Español Latino AC3 5.1 BD – Ingles TrueHD 7.1 & AC3 5.1 BD

Ficha técnica

  • Titulo original: Candyman
  • Fecha de lanzamiento: 25-08-2021 (Canada, United States of America)
  • Director: Nia DaCosta
  • Género: Remux, Suspenso, Terror

Video trailer de la película

Enlaces de descarga

Rip de Bluray

Descargar Candyman (2021) REMUX 1080p Latino




Aportes de DPeliculasHDmega la pass es:dpeliculashdmega.org Aportes de CinemaniaHD la pass es:cinemaniahdd.com
Guardado en : Remux , Suspenso , Terror

Películas relacionadas

descargar Candyman (2021) REMUX 1080p Latino Full 1080p 1080p gratis, Candyman (2021) REMUX 1080p Latino Full 1080p mega 1 link, Candyman (2021) REMUX 1080p Latino Full 1080p pelicula completa, descargar Candyman (2021) REMUX 1080p Latino Full 1080p gratis en mega.

Candyman (2021) REMUX 1080p Latino pelicula full hd, Candyman (2021) REMUX 1080p Latino mega latino, Candyman (2021) REMUX 1080p Latino 4k latino, Candyman (2021) REMUX 1080p Latino pelicula completa, Candyman (2021) REMUX 1080p Latino descargar gratis, descargar Candyman (2021) REMUX 1080p Latino pelicula latino, Candyman (2021) REMUX 1080p Latino 1 link mega, Candyman (2021) REMUX 1080p Latino 1 link google drive, Candyman (2021) REMUX 1080p Latino hd 1080p latino.
Comentarios 0