Caleb (2020) PLACEBO Full HD 1080p Latino

11 vistas
1 estrella2 estrellas3 estrellas4 estrellas5 estrellas (1 votos, promedio: 5,00 de 5)
Cargando...

Información de Caleb (2020) PLACEBO Full HD 1080p Latino

Datos de la película

  • Calidad: Full 1080p
  • Audio: Se especifica abajo de la Sinopsis
  • Subtitulos: No
  • Resolución: 1920x1080p
  • Formato: MKV
  • Codec: H.264
  • Encoder: Melkor
  • Mediainfo: Clic para Mostrar Datos Ver
  • Caleb (2020) PLACEBO Full HD 1080p Latino.mkv
    Format                      : Matroska
    Format version              : Version 4
    File size                   : 5.10 GiB
    Duration                    : 2 h 38 min
    Overall bit rate            : 4 592 kb/s
    Movie name                  : Caleb (2020) [Village Of The Vampire] CinemaniaHDD.NET
    Encoded date                : UTC 2021-09-14 06:05:13
    Writing application         : mkvmerge v56.1.0 ('My Friend') 64-bit
    Writing library             : libebml v1.4.2 + libmatroska v1.6.4
    Attachments                 : CINEMANIAHD.png

    Video
    ID                          : 1
    Format                      : AVC
    Format/Info                 : Advanced Video Codec
    Format profile              : High@L4.1
    Format settings             : CABAC / 4 Ref Frames
    Format settings, CABAC      : Yes
    Format settings, Reference  : 4 frames
    Codec ID                    : V_MPEG4/ISO/AVC
    Duration                    : 2 h 38 min
    Bit rate                    : 2 813 kb/s
    Width                       : 1 920 pixels
    Height                      : 1 080 pixels
    Display aspect ratio        : 16:9
    Frame rate mode             : Constant
    Frame rate                  : 24.000 FPS
    Color space                 : YUV
    Chroma subsampling          : 4:2:0
    Bit depth                   : 8 bits
    Scan type                   : Progressive
    Bits/(Pixel*Frame)          : 0.057
    Stream size                 : 3.12 GiB (61%)
    Title                       : Full HD1080p [CinemaniaHDD]
    Writing library             : x264 core 163 r3059 b684ebe0
    Encoding settings           : cabac=1 / ref=4 / deblock=1:0:0 / analyse=0x3:0x133 / me=tesa / subme=11 / psy=1 / psy_rd=1.00:0.00 / mixed_ref=1 / me_range=24 / chroma_me=1 / trellis=2 / 8x8dct=1 / cqm=0 / deadzone=21,11 / fast_pskip=0 / chroma_qp_offset=-2 / threads=24 / lookahead_threads=6 / sliced_threads=0 / nr=0 / decimate=1 / interlaced=0 / bluray_compat=0 / constrained_intra=0 / bframes=16 / b_pyramid=2 / b_adapt=2 / b_bias=0 / direct=3 / weightb=1 / open_gop=0 / weightp=2 / keyint=240 / keyint_min=24 / scenecut=40 / intra_refresh=0 / rc_lookahead=60 / rc=crf / mbtree=1 / crf=19.0 / qcomp=0.60 / qpmin=0 / qpmax=69 / qpstep=4 / vbv_maxrate=62500 / vbv_bufsize=78125 / crf_max=0.0 / nal_hrd=none / filler=0 / ip_ratio=1.40 / aq=1:1.00
    Default                     : Yes
    Forced                      : Yes
    Color range                 : Limited
    Color primaries             : BT.709
    Transfer characteristics    : BT.709
    Matrix coefficients         : BT.709

    Audio #1
    ID                          : 2
    Format                      : AC-3
    Format/Info                 : Audio Coding 3
    Commercial name             : Dolby Digital
    Codec ID                    : A_AC3
    Duration                    : 2 h 38 min
    Bit rate mode               : Constant
    Bit rate                    : 256 kb/s
    Channel(s)                  : 2 channels
    Channel layout              : L R
    Sampling rate               : 48.0 kHz
    Frame rate                  : 31.250 FPS (1536 SPF)
    Compression mode            : Lossy
    Delay relative to video     : 13 ms
    Stream size                 : 291 MiB (6%)
    Title                       : Español Latino [CinemaniaHDD]
    Language                    : Spanish
    Service kind                : Complete Main
    Default                     : Yes
    Forced                      : Yes

    Audio #2
    ID                          : 3
    Format                      : DTS
    Format/Info                 : Digital Theater Systems
    Codec ID                    : A_DTS
    Duration                    : 2 h 38 min
    Bit rate mode               : Constant
    Bit rate                    : 1 509 kb/s
    Channel(s)                  : 6 channels
    Channel layout              : C L R Ls Rs LFE
    Sampling rate               : 48.0 kHz
    Frame rate                  : 93.750 FPS (512 SPF)
    Bit depth                   : 24 bits
    Compression mode            : Lossy
    Stream size                 : 1.67 GiB (33%)
    Title                       : Italiano [CinemaniaHDD]
    Language                    : Italian
    Default                     : No
    Forced                      : No

    Text
    ID                          : 4
    Format                      : PGS
    Muxing mode                 : zlib
    Codec ID                    : S_HDMV/PGS
    Codec ID/Info               : Picture based subtitle format used on BDs/HD-DVDs
    Duration                    : 2 h 33 min
    Bit rate                    : 24.3 kb/s
    Count of elements           : 3086
    Stream size                 : 26.8 MiB (1%)
    Title                       : Italiano-PGS [CinemaniaHDD]
    Language                    : Italian
    Default                     : No
    Forced                      : No

    Menu
    00:00:00.000                : :Without a Trace
    00:12:48.917                : :Timere
    00:25:27.708                : :Travel Friends
    00:37:11.333                : :The Great Show
    00:50:54.083                : :Questions
    01:02:35.792                : :Dinner Invitation
    01:17:59.333                : :A Special Wine
    01:30:39.250                : :His Own Story
    01:52:07.750                : :Equipment
    01:57:23.458                : :Hunting
    02:08:31.500                : :The Long Night
    02:23:38.125                : :Final Clash

  • Peso: 5.10 GiB

Sinopsis

Descargar Caleb (2020) PLACEBO Full HD 1080p Latino. Rebecca busca a su hermana, una joven periodista que desapareció mientras investigaba una serie de hechos desafortunados. El rastro la lleva a Timere. Aquí Rebecca conoce a Caleb, un hombre cuya oscura mirada esconde un escalofriante secreto.

Español latino AC3. 2.0 – Italiano DTS 5.1

Ficha técnica

Video trailer de la película

Enlaces de descarga

Rip de Bluray

Descargar Caleb (2020) PLACEBO Full HD 1080p Latino




Aportes de DPeliculasHDmega la pass es:dpeliculashdmega.org Aportes de CinemaniaHD la pass es:cinemaniahdd.com

Películas relacionadas

Caleb (2020) PLACEBO Full HD 1080p Latino pelicula full hd, Caleb (2020) PLACEBO Full HD 1080p Latino mega latino, Caleb (2020) PLACEBO Full HD 1080p Latino 4k latino, Caleb (2020) PLACEBO Full HD 1080p Latino pelicula completa, Caleb (2020) PLACEBO Full HD 1080p Latino descargar gratis, descargar Caleb (2020) PLACEBO Full HD 1080p Latino pelicula latino, Caleb (2020) PLACEBO Full HD 1080p Latino 1 link mega, Caleb (2020) PLACEBO Full HD 1080p Latino 1 link google drive, Caleb (2020) PLACEBO Full HD 1080p Latino hd 1080p latino.
Comentarios 0