×

¿Problemas para descargar con Mozilla, EDGE? Deshabilita la opción "Abrir vinculos en una pestaña nueva" tal como lo muestra ésta imagen.

Calculo Mortal (2020) PLACEBO Full HD 1080p Latino

198 vistas

Información de Calculo Mortal (2020) PLACEBO Full HD 1080p Latino

Datos de la película

  • Calidad: Full 1080p
  • Audio: Español Latino AC3 2.0 iTUNES - Ingles DTS 5.1 BURAY
  • Subtitulos: Español Latino SRT- FORZADOS SRT
  • Resolución: 1920x1080p
  • Formato: MKV
  • Codec: H.264
  • Encoder: Melkor
  • Mediainfo: Clic para Mostrar Datos Ver
  • Calculo Mortal (2020) PLACEBO 1080p Latino.mkv
    Format                      : Matroska
    Format version              : Version 4
    File size                   : 3.95 GiB
    Duration                    : 1 h 31 min
    Overall bit rate            : 6 181 kb/s
    Movie name                  : Dead Reckoning (2020) CinemaniaHDD.Net
    Encoded date                : UTC 2021-06-17 13:33:56
    Writing application         : mkvmerge v56.1.0 ('My Friend') 64-bit
    Writing library             : libebml v1.4.2 + libmatroska v1.6.4
    Attachments                 : CINEMANIAHD.png

    Video
    ID                          : 1
    Format                      : AVC
    Format/Info                 : Advanced Video Codec
    Format profile              : High@L4.1
    Format settings             : CABAC / 4 Ref Frames
    Format settings, CABAC      : Yes
    Format settings, Reference  : 4 frames
    Codec ID                    : V_MPEG4/ISO/AVC
    Duration                    : 1 h 31 min
    Bit rate                    : 4 415 kb/s
    Width                       : 1 920 pixels
    Height                      : 1 080 pixels
    Display aspect ratio        : 16:9
    Frame rate mode             : Constant
    Frame rate                  : 23.976 (24000/1001) FPS
    Color space                 : YUV
    Chroma subsampling          : 4:2:0
    Bit depth                   : 8 bits
    Scan type                   : Progressive
    Bits/(Pixel*Frame)          : 0.089
    Stream size                 : 2.82 GiB (71%)
    Title                       : Full HD1080p [CinemaniaHDD]
    Writing library             : x264 core 157 r2935 545de2f
    Encoding settings           : cabac=1 / ref=4 / deblock=1:0:0 / analyse=0x3:0x133 / me=tesa / subme=11 / psy=1 / psy_rd=1.00:0.00 / mixed_ref=1 / me_range=24 / chroma_me=1 / trellis=2 / 8x8dct=1 / cqm=0 / deadzone=21,11 / fast_pskip=0 / chroma_qp_offset=-2 / threads=24 / lookahead_threads=6 / sliced_threads=0 / nr=0 / decimate=1 / interlaced=0 / bluray_compat=0 / constrained_intra=0 / bframes=16 / b_pyramid=2 / b_adapt=2 / b_bias=0 / direct=3 / weightb=1 / open_gop=0 / weightp=2 / keyint=240 / keyint_min=24 / scenecut=40 / intra_refresh=0 / rc_lookahead=60 / rc=crf / mbtree=1 / crf=19.0 / qcomp=0.60 / qpmin=0 / qpmax=69 / qpstep=4 / vbv_maxrate=62500 / vbv_bufsize=78125 / crf_max=0.0 / nal_hrd=none / filler=0 / ip_ratio=1.40 / aq=1:1.00
    Default                     : Yes
    Forced                      : Yes
    Color range                 : Limited
    Color primaries             : BT.709
    Transfer characteristics    : BT.709
    Matrix coefficients         : BT.709

    Audio #1
    ID                          : 2
    Format                      : AC-3
    Format/Info                 : Audio Coding 3
    Commercial name             : Dolby Digital
    Codec ID                    : A_AC3
    Duration                    : 1 h 31 min
    Bit rate mode               : Constant
    Bit rate                    : 256 kb/s
    Channel(s)                  : 2 channels
    Channel layout              : L R
    Sampling rate               : 48.0 kHz
    Frame rate                  : 31.250 FPS (1536 SPF)
    Compression mode            : Lossy
    Stream size                 : 167 MiB (4%)
    Title                       : Español Latino [CinemaniaHDD]
    Language                    : Spanish
    Service kind                : Complete Main
    Default                     : Yes
    Forced                      : Yes

    Audio #2
    ID                          : 3
    Format                      : DTS
    Format/Info                 : Digital Theater Systems
    Codec ID                    : A_DTS
    Duration                    : 1 h 31 min
    Bit rate mode               : Constant
    Bit rate                    : 1 509 kb/s
    Channel(s)                  : 6 channels
    Channel layout              : C L R Ls Rs LFE
    Sampling rate               : 48.0 kHz
    Frame rate                  : 93.750 FPS (512 SPF)
    Bit depth                   : 24 bits
    Compression mode            : Lossy
    Stream size                 : 986 MiB (24%)
    Title                       : Ingles [CinemaniaHDD]
    Language                    : English
    Default                     : No
    Forced                      : No

    Text #1
    ID                          : 4
    Format                      : UTF-8
    Codec ID                    : S_TEXT/UTF8
    Codec ID/Info               : UTF-8 Plain Text
    Duration                    : 1 h 27 min
    Bit rate                    : 1 b/s
    Count of elements           : 27
    Stream size                 : 660 Bytes (0%)
    Title                       : Forzados-SRT [CinemaniaHDD]
    Language                    : Spanish
    Default                     : Yes
    Forced                      : Yes

    Text #2
    ID                          : 5
    Format                      : UTF-8
    Codec ID                    : S_TEXT/UTF8
    Codec ID/Info               : UTF-8 Plain Text
    Duration                    : 1 h 30 min
    Bit rate                    : 45 b/s
    Count of elements           : 1070
    Stream size                 : 30.4 KiB (0%)
    Title                       : Español-SRT [CinemaniaHDD]
    Language                    : Spanish
    Default                     : No
    Forced                      : No

    Text #3
    ID                          : 6
    Format                      : UTF-8
    Codec ID                    : S_TEXT/UTF8
    Codec ID/Info               : UTF-8 Plain Text
    Duration                    : 1 h 31 min
    Bit rate                    : 49 b/s
    Count of elements           : 1237
    Stream size                 : 33.4 KiB (0%)
    Title                       : Ingles-SRT [CinemaniaHDD]
    Language                    : English
    Default                     : No
    Forced                      : No

    Menu
    00:00:00.000                : :Chapter 01
    00:09:02.625                : :Chapter 02
    00:16:11.512                : :Chapter 03
    00:24:31.387                : :Chapter 04
    00:32:01.503                : :Chapter 05
    00:41:06.798                : :Chapter 06
    00:49:05.526                : :Chapter 07
    00:57:01.793                : :Chapter 08
    01:05:59.330                : :Chapter 09
    01:14:14.992                : :Chapter 10
    01:20:38.083                : :Chapter 11
    01:26:13.502                : :Chapter 12

  • Peso: 3.95 GiB

Sinopsis

Descargar Calculo Mortal (2020) PLACEBO Full HD 1080p Latino. India Eisley (Underworld Awakening) protagoniza el papel de Tillie Gardner, una niña que se ha visto conmovida hasta la médula por la trágica muerte de sus padres en un accidente de avión hace unas semanas. Se las arregla con la ayuda del taxista local Niko (K.J. Apa, Riverdale), con quien comenzó un romance de verano en la isla de Nantucket. Pero lo que no sabe es que Marco (Scott Adkins, Doctor Strange), el hombre que saboteó el avión de sus padres, va camino de Nantucket para poner en marcha otro terrorífico plan. ¿Puede ella descubrir su oscuro secreto y reunir su ingenio para detenerlo a tiempo?

Ficha técnica

Video trailer de la película

Enlaces de descarga

Rip de Bluray

Descargar Calculo Mortal (2020) PLACEBO Full HD 1080p Latino




Aportes de DPeliculasHDmega la pass es:dpeliculashdmega.org Aportes de CinemaniaHD la pass es:cinemaniahdd.com

Películas relacionadas

descargar Calculo Mortal (2020) PLACEBO Full HD 1080p Latino Full 1080p 1080p gratis, Calculo Mortal (2020) PLACEBO Full HD 1080p Latino Full 1080p mega 1 link, Calculo Mortal (2020) PLACEBO Full HD 1080p Latino Full 1080p pelicula completa, descargar Calculo Mortal (2020) PLACEBO Full HD 1080p Latino Full 1080p gratis en mega.

Calculo Mortal (2020) PLACEBO Full HD 1080p Latino pelicula full hd, Calculo Mortal (2020) PLACEBO Full HD 1080p Latino mega latino, Calculo Mortal (2020) PLACEBO Full HD 1080p Latino 4k latino, Calculo Mortal (2020) PLACEBO Full HD 1080p Latino pelicula completa, Calculo Mortal (2020) PLACEBO Full HD 1080p Latino descargar gratis, descargar Calculo Mortal (2020) PLACEBO Full HD 1080p Latino pelicula latino, Calculo Mortal (2020) PLACEBO Full HD 1080p Latino 1 link mega, Calculo Mortal (2020) PLACEBO Full HD 1080p Latino 1 link google drive, Calculo Mortal (2020) PLACEBO Full HD 1080p Latino hd 1080p latino.
Comentarios 0