×

¿Problemas para descargar con Mozilla, EDGE? Deshabilita la opción "Abrir vinculos en una pestaña nueva" tal como lo muestra ésta imagen.

Calabozos & Dragones: Honor entre ladrones (2023) HD 1080p Latino

745 vistas

Información de Calabozos & Dragones: Honor entre ladrones (2023) HD 1080p Latino

Datos de la película

  • Calidad: 1080p
  • Audio: Español Latino AC3 5.1 WEB-DL - Ingles AC3 5.1 BLURAY
  • Subtitulos: Español Latino SRT- FORZADOS SRT
  • Resolución: 1920x804p
  • Formato: MKV
  • Codec: H.264
  • Encoder: Melkor | MTeam
  • Mediainfo: Clic para Mostrar Datos Ver
  • Calabozos Y Dragones (2023) HD 1080p Latino.mkv
    Format                      : Matroska
    Format version              : Version 4
    File size                   : 4.47 GiB
    Duration                    : 2 h 14 min
    Overall bit rate            : 4 770 kb/s
    Movie name                  : Dungeons & Dragons. Honor Among Thieves (2023) CinemaniaHDD.Net
    Encoded date                : UTC 2023-05-24 08:05:19
    Writing application         : mkvmerge v56.1.0 ('My Friend') 64-bit
    Writing library             : libebml v1.4.2 + libmatroska v1.6.4
    Attachments                 : CINEMANIAHD.png
    Site                        : CinemaniaHDD.Net
    Uploader                    : Melkor

    Video
    ID                          : 1
    Format                      : AVC
    Format/Info                 : Advanced Video Codec
    Format profile              : High@L4.1
    Format settings             : CABAC / 5 Ref Frames
    Format settings, CABAC      : Yes
    Format settings, Reference  : 5 frames
    Codec ID                    : V_MPEG4/ISO/AVC
    Duration                    : 2 h 14 min
    Bit rate                    : 3 500 kb/s
    Width                       : 1 920 pixels
    Height                      : 804 pixels
    Display aspect ratio        : 2.40:1
    Frame rate mode             : Constant
    Frame rate                  : 23.976 (24000/1001) FPS
    Color space                 : YUV
    Chroma subsampling          : 4:2:0
    Bit depth                   : 8 bits
    Scan type                   : Progressive
    Bits/(Pixel*Frame)          : 0.095
    Stream size                 : 3.27 GiB (73%)
    Title                       : HD1080p [CinemaniaHDD]
    Writing library             : x264 core 163 r3059 b684ebe0
    Encoding settings           : cabac=1 / ref=5 / deblock=1:-1:-1 / analyse=0x3:0x133 / me=umh / subme=9 / psy=1 / psy_rd=1.00:0.15 / mixed_ref=1 / me_range=16 / chroma_me=1 / trellis=2 / 8x8dct=1 / cqm=0 / deadzone=21,11 / fast_pskip=1 / chroma_qp_offset=-3 / threads=24 / lookahead_threads=2 / sliced_threads=0 / nr=0 / decimate=1 / interlaced=0 / bluray_compat=0 / constrained_intra=0 / bframes=3 / b_pyramid=2 / b_adapt=2 / b_bias=0 / direct=3 / weightb=1 / open_gop=0 / weightp=2 / keyint=240 / keyint_min=24 / scenecut=40 / intra_refresh=0 / rc_lookahead=60 / rc=abr / mbtree=1 / bitrate=3500 / ratetol=1.0 / qcomp=0.60 / qpmin=0 / qpmax=69 / qpstep=4 / vbv_maxrate=62500 / vbv_bufsize=78125 / nal_hrd=none / filler=0 / ip_ratio=1.40 / aq=1:1.00
    Default                     : Yes
    Forced                      : Yes
    Color range                 : Limited
    Color primaries             : BT.709
    Transfer characteristics    : BT.709
    Matrix coefficients         : BT.709

    Audio #1
    ID                          : 2
    Format                      : AC-3
    Format/Info                 : Audio Coding 3
    Commercial name             : Dolby Digital
    Codec ID                    : A_AC3
    Duration                    : 2 h 14 min
    Bit rate mode               : Constant
    Bit rate                    : 640 kb/s
    Channel(s)                  : 6 channels
    Channel layout              : L R C LFE Ls Rs
    Sampling rate               : 48.0 kHz
    Frame rate                  : 31.250 FPS (1536 SPF)
    Compression mode            : Lossy
    Stream size                 : 614 MiB (13%)
    Title                       : Español Latino [CinemaniaHDD]
    Language                    : Spanish
    Service kind                : Complete Main
    Default                     : Yes
    Forced                      : Yes

    Audio #2
    ID                          : 3
    Format                      : AC-3
    Format/Info                 : Audio Coding 3
    Commercial name             : Dolby Digital
    Codec ID                    : A_AC3
    Duration                    : 2 h 14 min
    Bit rate mode               : Constant
    Bit rate                    : 640 kb/s
    Channel(s)                  : 6 channels
    Channel layout              : L R C LFE Ls Rs
    Sampling rate               : 48.0 kHz
    Frame rate                  : 31.250 FPS (1536 SPF)
    Compression mode            : Lossy
    Stream size                 : 614 MiB (13%)
    Title                       : Ingles [CinemaniaHDD]
    Language                    : English
    Service kind                : Complete Main
    Default                     : No
    Forced                      : No

    Text #1
    ID                          : 4
    Format                      : UTF-8
    Codec ID                    : S_TEXT/UTF8
    Codec ID/Info               : UTF-8 Plain Text
    Duration                    : 1 h 59 min
    Bit rate                    : 0 b/s
    Count of elements           : 15
    Stream size                 : 608 Bytes (0%)
    Title                       : Forzados-SRT [CinemaniaHDD]
    Language                    : Spanish
    Default                     : Yes
    Forced                      : Yes

    Text #2
    ID                          : 5
    Format                      : UTF-8
    Codec ID                    : S_TEXT/UTF8
    Codec ID/Info               : UTF-8 Plain Text
    Duration                    : 2 h 12 min
    Bit rate                    : 53 b/s
    Count of elements           : 1573
    Stream size                 : 52.2 KiB (0%)
    Title                       : Español-SRT [CinemaniaHDD]
    Language                    : Spanish
    Default                     : No
    Forced                      : No

    Text #3
    ID                          : 6
    Format                      : UTF-8
    Codec ID                    : S_TEXT/UTF8
    Codec ID/Info               : UTF-8 Plain Text
    Duration                    : 2 h 6 min
    Bit rate                    : 66 b/s
    Count of elements           : 1911
    Stream size                 : 61.6 KiB (0%)
    Title                       : Ingles-SRT [CinemaniaHDD]
    Language                    : English
    Default                     : No
    Forced                      : No

    Menu
    00:00:00.000                : Chapter 01
    00:07:55.475                : Chapter 02
    00:14:48.387                : Chapter 03
    00:26:48.565                : Chapter 04
    00:33:54.366                : Chapter 05
    00:42:14.365                : Chapter 06
    00:49:19.665                : Chapter 07
    00:57:33.408                : Chapter 08
    01:05:10.198                : Chapter 09
    01:17:03.244                : Chapter 10
    01:26:41.071                : Chapter 11
    01:32:11.109                : Chapter 12
    01:40:15.676                : Chapter 13
    01:47:44.541                : Chapter 14
    01:53:30.137                : Chapter 15
    02:05:37.071                : Chapter 16
    Calabozos Y Dragones (2023) BDRip 1080p Latino[CMHDD].mkv
    File size                   : 16.1 GiB
    Duration                    : 2 h 14 min
    Movie name                  : Dungeons & Dragons. Honor Among Thieves (2023) CinemaniaHDD.Net
    Site                        : CinemaniaHDD.Net
    Uploader                    : Melkor
    Video
    Format                      : AVC x264 High@L4.1
    Bit rate                    : 10.9 Mb/s
    Width                       : 1 920 pixels
    Height                      : 804 pixels
    Frame rate                  : 23.976 (24000/1001) FPS
    Audio #1
    Format                      : E-AC-3
    Bit rate                    : 640 kb/s
    Channel(s)                  : 6 channels
    Sampling rate               : 48.0 kHz
    Title                       : Español Latino DDP [CinemaniaHDD]
    Language                    : Spanish
    Audio #2
    Format                      : MLP FBA 16-ch
    Bit rate                    : 4 347 kb/s
    Channel(s)                  : 8 channels
    Sampling rate               : 48.0 kHz
    Title                       : Ingles THD[CinemaniaHDD]
    Language                    : English
    Audio #3
    Format                      : AC-3
    Bit rate                    : 640 kb/s
    Channel(s)                  : 6 channels
    Sampling rate               : 48.0 kHz
    Title                       : Español Latino AC3 [CinemaniaHDD]
    Language                    : Spanish
    Audio #4
    Format                      : AC-3
    Bit rate                    : 640 kb/s
    Channel(s)                  : 6 channels
    Sampling rate               : 48.0 kHz
    Title                       : Ingles AC3 [CinemaniaHDD]
    Language                    : English
    Subtitulos: Yes (SRT)
    Chapters: Yes

  • Peso: 4.47 GiB | 16.1 GiB

Sinopsis

Descargar Calabozos & Dragones: Honor entre ladrones (2023) HD 1080p Latino. Un ladrón encantador y una banda de aventureros increíbles emprenden un atraco épico para recuperar una reliquia perdida, pero las cosas salen rematadamente mal cuando se topan con las personas equivocadas. Adaptación cinematográfica del primer juego de rol de la historia, publicado por primera vez en 1974.

Español Latino EAC3 & AC3 5.1 Web – Ingles THD 7.1 & AC3 5.1 BD (Solo Pesada)

Nota: Version Ligera & Pesada!!!

Ficha técnica

Video trailer de la película

Enlaces de descarga

Rip de Bluray

Descargar Calabozos & Dragones: Honor entre ladrones (2023) HD 1080p Latino




Aportes de DPeliculasHDmega la pass es:dpeliculashdmega.org Aportes de CinemaniaHD la pass es:cinemaniahdd.com Aportes recientes:cinemaniahdd.net
Guardado en : Aventura , Comedia , Fantasía , HD 1080p

Películas relacionadas

  • Red de venganza (2023) HD 1080p Latino

    Red de venganza (2023) HD 1080p Latino

    2023
    Red de venganza (2023) HD 1080p Latino

    1h 25m 2023

    Descargar Red de venganza (2023) HD 1080p Latino. Analiza los problemas que surgen entre una madre (Summer...

    Director: Amy Redford

    Género: Drama

    Actores: Summer Phoenix

  • Perra vida (2024) AMZN WEB-DL 1080p Latino

    Perra vida (2024) AMZN WEB-DL 1080p Latino

    2024
    Perra vida (2024) AMZN WEB-DL 1080p Latino

    1h 48m 2024

    Descargar Perra vida (2024) AMZN WEB-DL 1080p Latino. Para contentar a su hija, Romina (una abogada obsesiva...

    Director: Gabriela Sobarzo

    Género: Comedia

    Actores: Sergio Chamy

  • The Shift (2023) AMZN WEB-DL 1080p Latino

    The Shift (2023) AMZN WEB-DL 1080p Latino

    2023
    The Shift (2023) AMZN WEB-DL 1080p Latino

    1h 53m 2023

    Descargar The Shift (2023) AMZN WEB-DL 1080p Latino. Kevin viaja a través de los mundos para reunirse...

    Director: Brock Heasley

    Género: Ciencia ficción

    Actores: Teck

  • Godzilla: Minus One (2023) 1080p SUB-CMHDD

    Godzilla: Minus One (2023) 1080p SUB-CMHDD

    2023
    Godzilla: Minus One (2023) 1080p SUB-CMHDD

    2h 5m 2023

    Descargar Godzilla: Minus One (2023) 1080p SUB-CMHDD. En el Japón de la posguerra surge un nuevo terror....

    Director: 山崎貴

    Género: Acción

    Actores: 鶴田翔

  • Kung Fu Panda 4 (2024) 1080p Latino-CMHDD

    Kung Fu Panda 4 (2024) 1080p Latino-CMHDD

    2024
    Kung Fu Panda 4 (2024) 1080p Latino-CMHDD

    1h 34m 2024

    Descargar Kung Fu Panda 4 (2024) 1080p Latino-CMHDD. Po se prepara para ser el líder espiritual del...

    Director: Stephanie Ma Stine

    Género: Acción

    Actores: Viola Davis

descargar Calabozos & Dragones: Honor entre ladrones (2023) HD 1080p Latino 1080p 1080p gratis, Calabozos & Dragones: Honor entre ladrones (2023) HD 1080p Latino 1080p mega 1 link, Calabozos & Dragones: Honor entre ladrones (2023) HD 1080p Latino 1080p pelicula completa, descargar Calabozos & Dragones: Honor entre ladrones (2023) HD 1080p Latino 1080p gratis en mega.

Calabozos & Dragones: Honor entre ladrones (2023) HD 1080p Latino pelicula full hd, Calabozos & Dragones: Honor entre ladrones (2023) HD 1080p Latino mega latino, Calabozos & Dragones: Honor entre ladrones (2023) HD 1080p Latino 4k latino, Calabozos & Dragones: Honor entre ladrones (2023) HD 1080p Latino pelicula completa, Calabozos & Dragones: Honor entre ladrones (2023) HD 1080p Latino descargar gratis, descargar Calabozos & Dragones: Honor entre ladrones (2023) HD 1080p Latino pelicula latino, Calabozos & Dragones: Honor entre ladrones (2023) HD 1080p Latino 1 link mega, Calabozos & Dragones: Honor entre ladrones (2023) HD 1080p Latino 1 link google drive, Calabozos & Dragones: Honor entre ladrones (2023) HD 1080p Latino hd 1080p latino.
Comentarios 2