×

¿Problemas para descargar con Mozilla, EDGE? Deshabilita la opción "Abrir vinculos en una pestaña nueva" tal como lo muestra ésta imagen.

C.B Strike (2017 – 2018) Temporadas [01/03] CMAX WEB-DL 1080p Latino

268 vistas

Información de C.B Strike (2017 – 2018) Temporadas [01/03] CMAX WEB-DL 1080p Latino

Datos de la película

  • Calidad: WEBDL
  • Audio: Español Latino AC3 2.0 WEB-DL - Ingles AC3 5.1 WEB-DL
  • Subtitulos: Español Latino SRT- FORZADOS SRT
  • Resolución: 1920x1080
  • Formato: MKV
  • Codec: H.264
  • Encoder: cinemaniahdd
  • Mediainfo: Clic para Mostrar Datos Ver
  • C.B Strike T01E01 CMAX WEB-DL 1080p Latino [CNMNHDD].mkv
    Format                      : Matroska
    Format version              : Version 4
    File size                   : 3.72 GiB
    Duration                    : 59 min 11 s
    Overall bit rate mode       : Variable
    Overall bit rate            : 9 003 kb/s
    Movie name                  : C.B Strike T01E01 - CinemaniaHDD.Net
    Encoded date                : UTC 2021-01-24 02:13:16
    Writing application         : mkvmerge v51.0.0 ('I Wish') 64-bit
    Writing library             : libebml v1.4.0 + libmatroska v1.6.2

    Video
    ID                          : 1
    Format                      : AVC
    Format/Info                 : Advanced Video Codec
    Format profile              : High@L4
    Format settings             : CABAC / 4 Ref Frames
    Format settings, CABAC      : Yes
    Format settings, Reference  : 4 frames
    Codec ID                    : V_MPEG4/ISO/AVC
    Duration                    : 59 min 11 s
    Bit rate mode               : Variable
    Bit rate                    : 8 233 kb/s
    Maximum bit rate            : 12.4 Mb/s
    Width                       : 1 920 pixels
    Height                      : 1 080 pixels
    Display aspect ratio        : 16:9
    Frame rate mode             : Constant
    Frame rate                  : 23.976 (24000/1001) FPS
    Color space                 : YUV
    Chroma subsampling          : 4:2:0
    Bit depth                   : 8 bits
    Scan type                   : Progressive
    Bits/(Pixel*Frame)          : 0.166
    Stream size                 : 3.40 GiB (91%)
    Title                       : CinemaniaHDD
    Language                    : English
    Default                     : Yes
    Forced                      : No
    Color range                 : Limited
    Color primaries             : BT.709
    Transfer characteristics    : BT.709
    Matrix coefficients         : BT.709

    Audio #1
    ID                          : 2
    Format                      : AC-3
    Format/Info                 : Audio Coding 3
    Commercial name             : Dolby Digital
    Codec ID                    : A_AC3
    Duration                    : 59 min 11 s
    Bit rate mode               : Constant
    Bit rate                    : 384 kb/s
    Channel(s)                  : 2 channels
    Channel layout              : L R
    Sampling rate               : 48.0 kHz
    Frame rate                  : 31.250 FPS (1536 SPF)
    Compression mode            : Lossy
    Stream size                 : 163 MiB (4%)
    Title                       : Español latino [CinemaniaHDD]
    Language                    : Spanish
    Service kind                : Complete Main
    Default                     : Yes
    Forced                      : No

    Audio #2
    ID                          : 3
    Format                      : AC-3
    Format/Info                 : Audio Coding 3
    Commercial name             : Dolby Digital
    Codec ID                    : A_AC3
    Duration                    : 59 min 11 s
    Bit rate mode               : Constant
    Bit rate                    : 384 kb/s
    Channel(s)                  : 6 channels
    Channel layout              : L R C LFE Ls Rs
    Sampling rate               : 48.0 kHz
    Frame rate                  : 31.250 FPS (1536 SPF)
    Compression mode            : Lossy
    Stream size                 : 163 MiB (4%)
    Title                       : Inglés [CinemaniaHDD]
    Language                    : English
    Service kind                : Complete Main
    Default                     : No
    Forced                      : No

    Text #1
    ID                          : 4
    Format                      : UTF-8
    Codec ID                    : S_TEXT/UTF8
    Codec ID/Info               : UTF-8 Plain Text
    Duration                    : 30 min 4 s
    Bit rate                    : 2 b/s
    Count of elements           : 21
    Stream size                 : 456 Bytes (0%)
    Title                       : Forzados [CinemaniaHDD]
    Language                    : Spanish
    Default                     : Yes
    Forced                      : Yes

    Text #2
    ID                          : 5
    Format                      : UTF-8
    Codec ID                    : S_TEXT/UTF8
    Codec ID/Info               : UTF-8 Plain Text
    Duration                    : 58 min 13 s
    Bit rate                    : 52 b/s
    Count of elements           : 1086
    Stream size                 : 22.2 KiB (0%)
    Title                       : Español latino [CC] [CinemaniaHDD]
    Language                    : Spanish
    Default                     : No
    Forced                      : No

    Text #3
    ID                          : 6
    Format                      : UTF-8
    Codec ID                    : S_TEXT/UTF8
    Codec ID/Info               : UTF-8 Plain Text
    Duration                    : 58 min 13 s
    Bit rate                    : 57 b/s
    Count of elements           : 1209
    Stream size                 : 24.7 KiB (0%)
    Title                       : Inglés [CC] [CinemaniaHDD]
    Language                    : English
    Default                     : No
    Forced                      : No

     

  • Peso: 3.72 GiB Aprox ---- 26 GiB in 7 Chapters.

Sinopsis

El veterano de guerra Cormoran Strike (Tom Burke) regresa de Afganistán y empieza a trabajar como detective privado desde una pequeña oficina en Denmark Street, Londres. Aún con heridas físicas y psicológicas, los instintos de Strike, así como su experiencia como investigador en la policía militar, resultan cruciales en la solución a casos complejos.

Ficha técnica

Video trailer de la película

Enlaces de descarga

Rip de Bluray

Descargar C.B Strike (2017 – 2018) Temporadas [01/03] CMAX WEB-DL 1080p Latino




Aportes de DPeliculasHDmega la pass es:dpeliculashdmega.org Aportes de CinemaniaHD la pass es:cinemaniahdd.com
Guardado en : Drama , Crimen , HBOMAX , Misterio , Series

Películas relacionadas

descargar C.B Strike (2017 – 2018) Temporadas [01/03] CMAX WEB-DL 1080p Latino WEBDL 1080p gratis, C.B Strike (2017 – 2018) Temporadas [01/03] CMAX WEB-DL 1080p Latino WEBDL mega 1 link, C.B Strike (2017 – 2018) Temporadas [01/03] CMAX WEB-DL 1080p Latino WEBDL serie completa, descargar C.B Strike (2017 – 2018) Temporadas [01/03] CMAX WEB-DL 1080p Latino WEBDL gratis en mega.

C.B Strike (2017 – 2018) Temporadas [01/03] CMAX WEB-DL 1080p Latino pelicula full hd, C.B Strike (2017 – 2018) Temporadas [01/03] CMAX WEB-DL 1080p Latino mega latino, C.B Strike (2017 – 2018) Temporadas [01/03] CMAX WEB-DL 1080p Latino 4k latino, C.B Strike (2017 – 2018) Temporadas [01/03] CMAX WEB-DL 1080p Latino pelicula completa, C.B Strike (2017 – 2018) Temporadas [01/03] CMAX WEB-DL 1080p Latino descargar gratis, descargar C.B Strike (2017 – 2018) Temporadas [01/03] CMAX WEB-DL 1080p Latino pelicula latino, C.B Strike (2017 – 2018) Temporadas [01/03] CMAX WEB-DL 1080p Latino 1 link mega, C.B Strike (2017 – 2018) Temporadas [01/03] CMAX WEB-DL 1080p Latino 1 link google drive, C.B Strike (2017 – 2018) Temporadas [01/03] CMAX WEB-DL 1080p Latino hd 1080p latino.
Comentarios 0