×

¿Problemas para descargar con Mozilla, EDGE? Deshabilita la opción "Abrir vinculos en una pestaña nueva" tal como lo muestra ésta imagen.

Por la gracia de Dios (2018) PLACEBO Full HD 1080p Latino

291 vistas

Información de Por la gracia de Dios (2018) PLACEBO Full HD 1080p Latino

Datos de la película

  • Calidad: Full 1080p
  • Audio: Se especifica abajo de la Sinopsis
  • Subtitulos: Español Latino SRT
  • Resolución: 1920x1080p
  • Formato: MKV
  • Codec: H.264
  • Encoder: Melkor
  • Mediainfo: Clic para Mostrar Datos Ver
  • Por La Gracias De Dios (2018) PLACEBO Full HD 1080p Latino-CMHDD.mkv
    Format                      : Matroska
    Format version              : Version 4
    File size                   : 6.83 GiB
    Duration                    : 2 h 17 min
    Overall bit rate            : 7 110 kb/s
    Movie name                  : Grâce à Dieu - By the Grace of God (2018) CinemaniaHDD.Net
    Encoded date                : UTC 2020-07-23 03:55:26
    Writing application         : mkvmerge v46.0.0 ('No Deeper Escape') 64-bit
    Writing library             : libebml v1.3.10 + libmatroska v1.5.2
    Attachments                 : CINEMANIAHD.png

    Video
    ID                          : 1
    Format                      : AVC
    Format/Info                 : Advanced Video Codec
    Format profile              : High@L4.1
    Format settings             : CABAC / 4 Ref Frames
    Format settings, CABAC      : Yes
    Format settings, Reference  : 4 frames
    Codec ID                    : V_MPEG4/ISO/AVC
    Duration                    : 2 h 17 min
    Bit rate                    : 5 328 kb/s
    Width                       : 1 920 pixels
    Height                      : 1 080 pixels
    Display aspect ratio        : 16:9
    Frame rate mode             : Constant
    Frame rate                  : 24.000 FPS
    Color space                 : YUV
    Chroma subsampling          : 4:2:0
    Bit depth                   : 8 bits
    Scan type                   : Progressive
    Bits/(Pixel*Frame)          : 0.107
    Stream size                 : 5.12 GiB (75%)
    Title                       : Full HD1080p [CinemaniaHDD]
    Writing library             : x264 core 157 r2935 545de2f
    Encoding settings           : cabac=1 / ref=4 / deblock=1:0:0 / analyse=0x3:0x133 / me=tesa / subme=11 / psy=1 / psy_rd=1.00:0.00 / mixed_ref=1 / me_range=24 / chroma_me=1 / trellis=2 / 8x8dct=1 / cqm=0 / deadzone=21,11 / fast_pskip=0 / chroma_qp_offset=-2 / threads=24 / lookahead_threads=6 / sliced_threads=0 / nr=0 / decimate=1 / interlaced=0 / bluray_compat=0 / constrained_intra=0 / bframes=16 / b_pyramid=2 / b_adapt=2 / b_bias=0 / direct=3 / weightb=1 / open_gop=0 / weightp=2 / keyint=240 / keyint_min=24 / scenecut=40 / intra_refresh=0 / rc_lookahead=60 / rc=crf / mbtree=1 / crf=20.0 / qcomp=0.60 / qpmin=0 / qpmax=69 / qpstep=4 / vbv_maxrate=62500 / vbv_bufsize=78125 / crf_max=0.0 / nal_hrd=none / filler=0 / ip_ratio=1.40 / aq=1:1.00
    Default                     : Yes
    Forced                      : Yes
    Color range                 : Limited
    Color primaries             : BT.709
    Transfer characteristics    : BT.709
    Matrix coefficients         : BT.709

    Audio #1
    ID                          : 2
    Format                      : AC-3
    Format/Info                 : Audio Coding 3
    Commercial name             : Dolby Digital
    Codec ID                    : A_AC3
    Duration                    : 2 h 17 min
    Bit rate mode               : Constant
    Bit rate                    : 256 kb/s
    Channel(s)                  : 2 channels
    Channel layout              : L R
    Sampling rate               : 44.1 kHz
    Frame rate                  : 28.711 FPS (1536 SPF)
    Compression mode            : Lossy
    Stream size                 : 252 MiB (4%)
    Title                       : Español Latino [CinemaniaHDD]
    Language                    : Spanish
    Service kind                : Complete Main
    Default                     : Yes
    Forced                      : Yes

    Audio #2
    ID                          : 3
    Format                      : DTS
    Format/Info                 : Digital Theater Systems
    Codec ID                    : A_DTS
    Duration                    : 2 h 17 min
    Bit rate mode               : Constant
    Bit rate                    : 1 509 kb/s
    Channel(s)                  : 6 channels
    Channel layout              : C L R Ls Rs LFE
    Sampling rate               : 48.0 kHz
    Frame rate                  : 93.750 FPS (512 SPF)
    Bit depth                   : 24 bits
    Compression mode            : Lossy
    Stream size                 : 1.45 GiB (21%)
    Title                       : Frances [CinemaniaHDD]
    Language                    : French
    Default                     : No
    Forced                      : No

    Text #1
    ID                          : 4
    Format                      : UTF-8
    Codec ID                    : S_TEXT/UTF8
    Codec ID/Info               : UTF-8 Plain Text
    Duration                    : 2 h 14 min
    Bit rate                    : 73 b/s
    Count of elements           : 1951
    Stream size                 : 72.0 KiB (0%)
    Title                       : Español-SRT [CinemaniaHDD]
    Language                    : Spanish
    Default                     : No
    Forced                      : No

    Text #2
    ID                          : 5
    ID in the original source m : 4608 (0x1200)
    Format                      : PGS
    Muxing mode                 : zlib
    Codec ID                    : S_HDMV/PGS
    Codec ID/Info               : Picture based subtitle format used on BDs/HD-DVDs
    Duration                    : 2 h 17 min
    Bit rate                    : 37.5 kb/s
    Count of elements           : 4240
    Stream size                 : 36.7 MiB (1%)
    Title                       : Frances-PGS [CinemaniaHDD]
    Language                    : French
    Default                     : No
    Forced                      : No
    Original source medium      : Blu-ray

    Menu
    00:00:00.000                : en:Chapter 01
    00:11:57.416                : en:Chapter 02
    00:23:38.333                : en:Chapter 03
    00:31:06.666                : en:Chapter 04
    00:41:32.000                : en:Chapter 05
    00:56:02.500                : en:Chapter 06
    01:06:39.625                : en:Chapter 07
    01:19:04.875                : en:Chapter 08
    01:28:45.958                : en:Chapter 09
    01:40:01.083                : en:Chapter 10
    01:49:56.833                : en:Chapter 11
    02:01:04.791                : en:Chapter 12

  • Peso: 6.83 GiB

Sinopsis

Descargar Por la gracia de Dios (2018) PLACEBO Full HD 1080p Latino. Alexandre (Melvil Poupaud) vive en Lyon con su esposa e hijos. Por casualidad, se entera de que el sacerdote que abusó de él en un campamento de verano cuando era niño, sigue trabajando con menores. En busca de justicia, Alexandre se lanzará a un combate al que se unen François (Denis Ménochet) y Emmanuel (Swann Arlaud), otras víctimas del sacerdote, con el fin de liberarse de sus sufrimientos a través de la palabra. Pero las repercusiones y consecuencias de sus testimonios no dejarán a nadie indemne.

Audio Español Latino AC3 2.0 Capturado – Frances DTS 5.1 Bluray

Ficha técnica

Video trailer de la película

Enlaces de descarga

Rip de Bluray

Descargar Por la gracia de Dios (2018) PLACEBO Full HD 1080p Latino




Aportes de DPeliculasHDmega la pass es:dpeliculashdmega.org Aportes de CinemaniaHD la pass es:cinemaniahdd.com

Películas relacionadas

descargar Por la gracia de Dios (2018) PLACEBO Full HD 1080p Latino Full 1080p 1080p gratis, Por la gracia de Dios (2018) PLACEBO Full HD 1080p Latino Full 1080p mega 1 link, Por la gracia de Dios (2018) PLACEBO Full HD 1080p Latino Full 1080p pelicula completa, descargar Por la gracia de Dios (2018) PLACEBO Full HD 1080p Latino Full 1080p gratis en mega.

Por la gracia de Dios (2018) PLACEBO Full HD 1080p Latino pelicula full hd, Por la gracia de Dios (2018) PLACEBO Full HD 1080p Latino mega latino, Por la gracia de Dios (2018) PLACEBO Full HD 1080p Latino 4k latino, Por la gracia de Dios (2018) PLACEBO Full HD 1080p Latino pelicula completa, Por la gracia de Dios (2018) PLACEBO Full HD 1080p Latino descargar gratis, descargar Por la gracia de Dios (2018) PLACEBO Full HD 1080p Latino pelicula latino, Por la gracia de Dios (2018) PLACEBO Full HD 1080p Latino 1 link mega, Por la gracia de Dios (2018) PLACEBO Full HD 1080p Latino 1 link google drive, Por la gracia de Dios (2018) PLACEBO Full HD 1080p Latino hd 1080p latino.
Comentarios 0