×

¿Problemas para descargar con Mozilla, EDGE? Deshabilita la opción "Abrir vinculos en una pestaña nueva" tal como lo muestra ésta imagen.

Búsqueda Implacable (2008) UNRATED Full 1080p Latino

5.396 vistas

Información de Búsqueda Implacable (2008) UNRATED Full 1080p Latino

Datos de la película

  • Calidad: Full 1080p
  • Audio: Español Latino AC3 5.1 BLURAY - Ingles DTS 5.1 BLURAY
  • Subtitulos: Español Latino PGS - Ingles PGS
  • Resolución: 1920X1080
  • Formato: MKV
  • Codec: H.264
  • Encoder: Dpelis
  • Mediainfo: Clic para Mostrar Datos Ver
  • Format                                   : Matroska
    Format version                           : Version 4 / Version 2
    File size                                : 7.96 GiB
    Duration                                 : 1 h 33 min
    Overall bit rate                         : 12.2 Mb/s
    Movie name                               : dpeliculashdmega.org
    Encoded date                             : UTC 2017-11-12 05:21:40 / UTC 2017-11-11T11:38:38Z
    Writing application                      : mkvmerge v15.0.0 ('Duel with the Devil') 64-bit
    Writing library                          : libebml v1.3.5 + libmatroska v1.4.5 / Lavf57.7.2

    Video
    ID                                       : 1
    Format                                   : AVC
    Format/Info                              : Advanced Video Codec
    Format profile                           : High@L4.1
    Format settings                          : CABAC / 4 Ref Frames
    Format settings, CABAC                   : Yes
    Format settings, RefFrames               : 4 frames
    Codec ID                                 : V_MPEG4/ISO/AVC
    Duration                                 : 1 h 33 min
    Bit rate                                 : 10.0 Mb/s
    Width                                    : 1 920 pixels
    Height                                   : 1 080 pixels
    Display aspect ratio                     : 16:9
    Frame rate mode                          : Constant
    Frame rate                               : 23.976 (24000/1001) FPS
    Color space                              : YUV
    Chroma subsampling                       : 4:2:0
    Bit depth                                : 8 bits
    Scan type                                : Progressive
    Bits/(Pixel*Frame)                       : 0.201
    Stream size                              : 6.53 GiB (82%)
    Title                                    : Búsqueda Implacable (2008) UNRATED Full 1080p Latino
    Writing library                          : x264 core 148 r2708 86b7198
    Encoding settings                        : cabac=1 / ref=4 / deblock=1:0:0 / analyse=0x3:0x133 / me=esa / subme=10 / psy=1 / psy_rd=1.00:0.00 / mixed_ref=1 / me_range=24 / chroma_me=1 / trellis=2 / 8x8dct=1 / cqm=0 / deadzone=21,11 / fast_pskip=1 / chroma_qp_offset=-2 / threads=34 / lookahead_threads=5 / sliced_threads=0 / nr=0 / decimate=1 / interlaced=0 / bluray_compat=0 / constrained_intra=0 / bframes=8 / b_pyramid=2 / b_adapt=2 / b_bias=0 / direct=3 / weightb=1 / open_gop=0 / weightp=2 / keyint=240 / keyint_min=24 / scenecut=40 / intra_refresh=0 / rc_lookahead=60 / rc=crf / mbtree=1 / crf=20.0 / qcomp=0.60 / qpmin=0 / qpmax=69 / qpstep=4 / vbv_maxrate=62500 / vbv_bufsize=78125 / crf_max=0.0 / nal_hrd=none / filler=0 / ip_ratio=1.40 / aq=1:1.00
    Language                                 : English
    Default                                  : Yes
    Forced                                   : No
    Color range                              : Limited
    Color primaries                          : BT.709
    Transfer characteristics                 : BT.709
    Matrix coefficients                      : BT.709
    Statistics Tags Issue                    : mkvmerge v15.0.0 ('Duel with the Devil') 64-bit 2017-11-12 05:21:40 / mkvmerge v15.0.0 ('Duel with the Devil') 64-bit 2017-11-12 05:21:40 / UTC 2017-11-11T11:38:38Z
    FromStats_BitRate                        : 10227190
    FromStats_Duration                       : 01:33:24.641000000
    FromStats_FrameCount                     : 134377
    FromStats_StreamSize                     : 7164966179

    Audio #1
    ID                                       : 2
    Format                                   : AC-3
    Format/Info                              : Audio Coding 3
    Format settings, Endianness              : Big
    Codec ID                                 : A_AC3
    Duration                                 : 1 h 33 min
    Bit rate mode                            : Constant
    Bit rate                                 : 448 kb/s
    Channel(s)                               : 6 channels
    Channel positions                        : Front: L C R, Side: L R, LFE
    Sampling rate                            : 48.0 kHz
    Frame rate                               : 31.250 FPS (1536 SPF)
    Bit depth                                : 16 bits
    Compression mode                         : Lossy
    Stream size                              : 299 MiB (4%)
    Title                                    : Latino-AC3
    Language                                 : Spanish
    Service kind                             : Complete Main
    Default                                  : Yes
    Forced                                   : No
    Statistics Tags Issue                    : mkvmerge v15.0.0 ('Duel with the Devil') 64-bit 2017-11-12 05:21:40 / mkvmerge v15.0.0 ('Duel with the Devil') 64-bit 2017-11-12 05:21:40 / UTC 2017-11-11T11:38:38Z
    FromStats_BitRate                        : 448000
    FromStats_Duration                       : 01:33:24.288000000
    FromStats_FrameCount                     : 175134
    FromStats_StreamSize                     : 313840128

    Audio #2
    ID                                       : 3
    Format                                   : DTS
    Format/Info                              : Digital Theater Systems
    Mode                                     : 16
    Format settings, Endianness              : Big
    Codec ID                                 : A_DTS
    Duration                                 : 1 h 33 min
    Bit rate mode                            : Constant
    Bit rate                                 : 1 509 kb/s
    Channel(s)                               : 6 channels
    Channel positions                        : Front: L C R, Side: L R, LFE
    Sampling rate                            : 48.0 kHz
    Frame rate                               : 93.750 FPS (512 SPF)
    Bit depth                                : 24 bits
    Compression mode                         : Lossy
    Stream size                              : 1 008 MiB (12%)
    Title                                    : Igles-DTS
    Language                                 : English
    Default                                  : No
    Forced                                   : No
    Statistics Tags Issue                    : mkvmerge v15.0.0 ('Duel with the Devil') 64-bit 2017-11-12 05:21:40 / mkvmerge v15.0.0 ('Duel with the Devil') 64-bit 2017-11-12 05:21:40 / UTC 2017-11-11T11:38:38Z
    FromStats_BitRate                        : 1508999
    FromStats_Duration                       : 01:33:24.651000000
    FromStats_FrameCount                     : 525436
    FromStats_StreamSize                     : 1057177232

    Text #1
    ID                                       : 4
    Format                                   : UTF-8
    Codec ID                                 : S_TEXT/UTF8
    Codec ID/Info                            : UTF-8 Plain Text
    Title                                    : SRT-Forzados
    Language                                 : Spanish
    Default                                  : Yes
    Forced                                   : No
    Statistics Tags Issue                    : mkvmerge v15.0.0 ('Duel with the Devil') 64-bit 2017-11-12 05:21:40 / mkvmerge v15.0.0 ('Duel with the Devil') 64-bit 2017-11-12 05:21:40 / UTC 2017-11-11T11:38:38Z
    FromStats_BitRate                        : 1
    FromStats_Duration                       : 01:22:50.715000000
    FromStats_FrameCount                     : 31
    FromStats_StreamSize                     : 714

    Text #2
    ID                                       : 5
    Format                                   : PGS
    Muxing mode                              : zlib
    Codec ID                                 : S_HDMV/PGS
    Codec ID/Info                            : Picture based subtitle format used on BDs/HD-DVDs
    Language                                 : Spanish
    Default                                  : No
    Forced                                   : No
    Statistics Tags Issue                    : mkvmerge v15.0.0 ('Duel with the Devil') 64-bit 2017-11-12 05:21:40 / mkvmerge v15.0.0 ('Duel with the Devil') 64-bit 2017-11-12 05:21:40 / UTC 2017-11-11T11:38:38Z
    FromStats_BitRate                        : 48037
    FromStats_Duration                       : 01:27:26.033000000
    FromStats_FrameCount                     : 1838
    FromStats_StreamSize                     : 31501099

    Text #3
    ID                                       : 6
    Format                                   : PGS
    Muxing mode                              : zlib
    Codec ID                                 : S_HDMV/PGS
    Codec ID/Info                            : Picture based subtitle format used on BDs/HD-DVDs
    Language                                 : English
    Default                                  : No
    Forced                                   : No
    Statistics Tags Issue                    : mkvmerge v15.0.0 ('Duel with the Devil') 64-bit 2017-11-12 05:21:40 / mkvmerge v15.0.0 ('Duel with the Devil') 64-bit 2017-11-12 05:21:40 / UTC 2017-11-11T11:38:38Z
    FromStats_BitRate                        : 2344
    FromStats_Duration                       : 00:48:30.366000000
    FromStats_FrameCount                     : 112
    FromStats_StreamSize                     : 853037

    Menu
    00:00:00.000                             : :Her Real Father/ Main Titles
    00:04:42.949                             : :Red Meat, Red Wine
    00:07:59.020                             : :The Diva
    00:12:51.604                             : :Just Sign the Paper
    00:16:48.216                             : :Rules and Condition
    00:20:26.726                             : :Ah, Paris
    00:24:27.967                             : :Nightmare!
    00:29:10.123                             : :96-Hour Window
    00:32:25.277                             : :Searching the Apartment
    00:35:52.317                             : :Stalking the Stalker
    00:38:54.249                             : :Try Not to Make a Mess
    00:41:33.282                             : :Porte de Clichy
    00:45:46.827                             : :Makeshift Brothel
    00:51:41.724                             : :Thanks, But No Thanks
    00:56:00.440                             : :Paradise
    00:57:36.578                             : :Zeroing In
    01:03:56.875                             : :Sold
    01:06:55.762                             : :What a Pleasant Surprise
    01:10:18.840                             : :Saving the Best for Last
    01:15:07.670                             : :All Sales Are Final
    01:18:21.655                             : :Racing the Boat
    01:21:08.322                             : :Last Man Standing
    01:26:01.948                             : :Welcome Home
    01:28:03.653                             : :End Titles

  • Peso: 7.96 GiB

Sinopsis

¿Qué podría ser peor para un padre que la impotencia cuando al otro lado de una llamada de móvil oye cómo secuestran a su hija? Esta es la pesadilla que se hace realidad para Bryan (Liam Neeson), un espía retirado que sólo tiene unas horas para recuperar a su hija, que ha sido secuestrada por una peligrosa banda especializada en la venta de jóvenes adolescentes.

Ficha técnica

Video trailer de la película

Enlaces de descarga

Rip de Bluray

Descargar Búsqueda Implacable (2008) UNRATED Full 1080p Latino




Aportes de DPeliculasHDmega la pass es:dpeliculashdmega.org Aportes de CinemaniaHD la pass es:cinemaniahdd.com Aportes recientes:cinemaniahdd.net

Películas relacionadas

descargar Búsqueda Implacable (2008) UNRATED Full 1080p Latino Full 1080p 1080p gratis, Búsqueda Implacable (2008) UNRATED Full 1080p Latino Full 1080p mega 1 link, Búsqueda Implacable (2008) UNRATED Full 1080p Latino Full 1080p pelicula completa, descargar Búsqueda Implacable (2008) UNRATED Full 1080p Latino Full 1080p gratis en mega.

Búsqueda Implacable (2008) UNRATED Full 1080p Latino pelicula full hd, Búsqueda Implacable (2008) UNRATED Full 1080p Latino mega latino, Búsqueda Implacable (2008) UNRATED Full 1080p Latino 4k latino, Búsqueda Implacable (2008) UNRATED Full 1080p Latino pelicula completa, Búsqueda Implacable (2008) UNRATED Full 1080p Latino descargar gratis, descargar Búsqueda Implacable (2008) UNRATED Full 1080p Latino pelicula latino, Búsqueda Implacable (2008) UNRATED Full 1080p Latino 1 link mega, Búsqueda Implacable (2008) UNRATED Full 1080p Latino 1 link google drive, Búsqueda Implacable (2008) UNRATED Full 1080p Latino hd 1080p latino.
Comentarios 12